[ Сегодня идет свободное скачивание без начисления Download ]


Статистика раздачи
Нет
 
   
 
Top  
 
 
-Лихорадка / Cabin Fever (2002) BDRip [1080p]
«Ужас... Внутри»
-

Год выпуска: 2002
Производство: США | Black Sky Entertainment, Cabin Pictures
Жанр: Ужасы
Описание фильма:
После тяжелого учебного года пятеро студентов решают провести пару дней в маленькой лесной хижине. Несмотря на странное поведение местных жителей, они намерены как следует расслабиться, но внезапно их планы нарушает встреча с бродягой с ужасной, будто бы гниющей кожей. Ребятам удается отделаться от несчастного, но они не знают, что он успел отравить местный водоем, и неизвестная инфекция уже распространяется по округе. Кто из них станет первой жертвой страшного вируса, пожирающего человеческую плоть?
Режиссер: Элай Рот
Актеры: Райдер Стронг, Джордан Лэдд, Джеймс ДеБелло, Серина Винсент, Джои Керн, Эри Вервин, Роберт Харрис, Хэл Кортни, Мэттью Хелмс, Ричард Бун
Продолжительность: 01:31:55
Качество видео: BDRip [1080p]
Перевод: Профессиональный (Полное дублирование)
Язык субтитров: Русские
Вид субтитров: Вшитые отключаемые

Дата мировой премьеры: 14 сентября 2002
Дата российской премьеры: 18 декабря 2003, «Централ Партнершип», «Гельварс», «Cinema Vision»
Дата выхода DVD релиза: 29 января 2004, «CP-Digital»
Видео кодек: MPEG-4 AVC/H.264
Аудио кодек: AC3, DTS
Видео: 1920 x 816 (2.35:1), 24.000 fps, ~10.8 mbps, 0.288 bit/ pixel
Аудио№1: 48 kHz, Audio Coding 3 Dolby Digital, 6 ch (Front: L C R, Side: L R, LFE), ~448 kbps avg | DUB
Аудио№2: 48 kHz, DTS, 5.1 ch, ~1510 kbps | ENG
Сэмпл: Ссылка

MediaInfo

General
Unique ID                      : 238295428146000946918804902094216442593 (0xB34607B2843B0E2099C39360E89532E1)
Complete name                  : D:\фильмы\Lihoradka.2002.BDRip.1080p.mkv
Format                         : Matroska
Format version                 : Version 2
File size                      : 8.22 GiB
Duration                       : 1h 31mn
Overall bit rate               : 12.8 Mbps
Encoded date                   : UTC 2009-07-24 05:24:43
Writing application            : mkvmerge v2.9.5 ('Tu es le seul') built on Jun  7 2009 11:07:07
Writing library                : libebml v0.7.7 + libmatroska v0.8.1
Video
ID                             : 1
Format                         : AVC
Format/Info                    : Advanced Video Codec
Format profile                 : [url=mailto:High@L4.1]High@L4.1[/url]
Format settings, CABAC         : Yes
Format settings, ReFrames      : 5 frames
Format settings, GOP           : N=1
Codec ID                       : V_MPEG4/ISO/AVC
Duration                       : 1h 31mn
Bit rate                       : 10.8 Mbps
Width                          : 1 920 pixels
Height                         : 816 pixels
Display aspect ratio           : 2.35:1
Frame rate                     : 24.000 fps
Color space                    : YUV
Chroma subsampling             : 4:2:0
Bit depth                      : 8 bits
Scan type                      : Progressive
Bits/(Pixel*Frame)             : 0.288
Stream size                    : 6.80 GiB (83%)
Writing library                : x264 core 67 r1173 f6d3166
Encoding settings              : cabac=1 / ref=5 / deblock=1:-1:-1 / analyse=0x3:0x113 / me=umh / subme=7 / psy_rd=1.0:0.0 / mixed_ref=1 / me_range=16 / chroma_me=1 / trellis=2 / 8x8dct=1 / cqm=0 / deadzone=21,11 / chroma_qp_offset=-2 / threads=6 / nr=0 / decimate=1 / mbaff=0 / bframes=3 / b_pyramid=0 / b_adapt=2 / b_bias=0 / direct=3 / wpredb=1 / keyint=250 / keyint_min=25 / scenecut=40 / rc=2pass / bitrate=10842 / ratetol=1.0 / qcomp=0.60 / qpmin=10 / qpmax=51 / qpstep=4 / cplxblur=20.0 / qblur=0.5 / vbv_maxrate=50000 / vbv_bufsize=50000 / ip_ratio=1.40 / pb_ratio=1.30 / aq=1:1.00
Language                       : English
Default                        : Yes
Forced                         : No
Audio #1
ID                             : 2
Format                         : AC-3
Format/Info                    : Audio Coding 3
Mode extension                 : CM (complete main)
Codec ID                       : A_AC3
Duration                       : 1h 31mn
Bit rate mode                  : Constant
Bit rate                       : 448 Kbps
Channel(s)                     : 6 channels
Channel positions              : Front: L C R, Side: L R, LFE
Sampling rate                  : 48.0 KHz
Bit depth                      : 16 bits
Compression mode               : Lossy
Delay relative to video        : 20ms
Stream size                    : 295 MiB (4%)
Language                       : Russian
Default                        : Yes
Forced                         : No
Audio #2
ID                             : 3
Format                         : DTS
Format/Info                    : Digital Theater Systems
Codec ID                       : A_DTS
Duration                       : 1h 31mn
Bit rate mode                  : Constant
Bit rate                       : 1 510 Kbps
Channel(s)                     : 6 channels
Channel positions              : Front: L C R, Side: L R, LFE
Sampling rate                  : 48.0 KHz
Bit depth                      : 16 bits
Compression mode               : Lossy
Stream size                    : 993 MiB (12%)
Language                       : English
Default                        : No
Forced                         : No
Text
ID                             : 4
Format                         : UTF-8
Codec ID                       : S_TEXT/UTF8
Codec ID/Info                  : UTF-8 Plain Text
Language                       : Russian
Default                        : Yes
Forced                         : No
Скриншоты:

[Цитировать]



Показать сообщения:    

Текущее время: 11-Дек 14:49

Часовой пояс: UTC + 3


Вы не можете начинать темы
Вы не можете отвечать на сообщения
Вы не можете редактировать свои сообщения
Вы не можете удалять свои сообщения
Вы не можете голосовать в опросах
Вы не можете прикреплять файлы к сообщениям
Вы не можете скачивать файлы

!ВНИМАНИЕ!
Сайт не предоставляет электронные версии произведений, а занимается лишь коллекционированием и каталогизацией ссылок, присылаемых и публикуемых на форуме нашими читателями. Если вы являетесь правообладателем какого-либо представленного материала и не желаете, чтобы ссылка на него находилась в нашем каталоге, свяжитесь с нами, и мы незамедлительно удалим ее. Файлы для обмена на трекере предоставлены пользователями сайта, и администрация не несет ответственности за их содержание. Просьба не заливать файлы, защищенные авторскими правами, а также файлы нелегального содержания!