[ Сегодня идет свободное скачивание без начисления Download ]


Статистика раздачи
Нет
 
   
 
Top  
 
 
-Проклятье 3D 2 / Sadako 3D 2 (2013) BDRip [720p]- Год выпуска: 2013
Производство: Япония
Жанр: Ужасы
Описание фильма:
Молодая аспирантка Фуко воспитывает свою маленькую племянницу, мать которой умерла при родах. Девочка растет крайне замкнутой и постоянно что-то рисует. В городе происходит цепь несчастных случаев. По странному стечению обстоятельств все они как-то связаны с племянницей Фуко, которая либо оказывалась рядом, либо предвидела эти случаи в своих рисунках. Что все это значит? Как связана маленькая девочка с этими трагедиями, и не угрожает ли опасность всем, кто находится рядом с ней?
Режиссер: Цутому Ханабуса
Актеры: Сатоми Исихара, Юсуке Ямамото, Миори Такимото, Коджи Сето
Продолжительность: 01:35:51
Качество видео: BDRip
Перевод: Двуголосый закадровый, любительский (DeadSno & den904)
Язык субтитров: Английский
Вид субтитров: Вшитые отключаемые

Дата мировой премьеры: 30 августа 2013
Дата российской премьеры: 20 марта 2014, «Наше Кино»
Видеокодек: MPEG-4 AVC/H.264
Битрейт видео: ~4445 kb/s
Размер кадра: 1280х720
Аудио 1: АС3 5.1, 448 kb/s, Русский
Аудио 2: АС3 5.1, 640 kb/s, Японский
Сэмпл: Ссылка

Дополнительная информация:

Сохранены оригинальные чаптеры как на Blu-ray

MediaInfo:

Общее
Уникальный идентификатор : 213398093449598180488977017395706876670 (0xA08AFA52BCC6DD93987E739AF79C52FE)
Полное имя : C:Торренты\Проклятье 3D 2.2013.BDRip.720p.mkv
Формат : Matroska
Версия формата : Version 4 / Version 2
Размер файла : 3,78 Гбайт
Продолжительность : 1 ч. 35 м.
Общий поток : 5646 Кбит/сек
Дата кодирования : UTC 2014-03-07 09:04:46
Программа кодирования : mkvmerge v6.8.0 ('Theme for Great Cities') 64bit built on Mar 2 2014 21:34:26
Библиотека кодирования : libebml v1.3.0 + libmatroska v1.4.1
Видео
Идентификатор : 1
Формат : AVC
Формат/Информация : Advanced Video Codec
Профиль формата : High@L4.1
Параметр CABAC формата : Да
Параметр ReFrames формата : 9 кадров
Идентификатор кодека : V_MPEG4/ISO/AVC
Продолжительность : 1 ч. 35 м.
Битрейт : 4445 Кбит/сек
Ширина : 1280 пикселей
Высота : 720 пикселей
Соотношение сторон : 16:9
Режим частоты кадров : Постоянный
Частота кадров : 23,976 кадра/сек
Цветовое пространство : YUV
Субдискретизация насыщенности : 4:2:0
Битовая глубина : 8 бит
Тип развёртки : Прогрессивная
Бит/(Пиксели*Кадры) : 0.201
Размер потока : 2,98 Гбайт (79%)
Библиотека кодирования : x264 core 129 r2230 1cffe9f
Настройки программы : cabac=1 / ref=9 / deblock=1:-3:-3 / analyse=0x3:0x113 / me=umh / subme=10 / psy=1 / psy_rd=1.00:0.00 / mixed_ref=1 / me_range=32 / chroma_me=1 / trellis=2 / 8x8dct=1 / cqm=0 / deadzone=21,11 / fast_pskip=0 / chroma_qp_offset=-2 / threads=12 / lookahead_threads=2 / sliced_threads=0 / nr=0 / decimate=0 / interlaced=0 / bluray_compat=0 / constrained_intra=0 / bframes=8 / b_pyramid=2 / b_adapt=2 / b_bias=0 / direct=3 / weightb=1 / open_gop=0 / weightp=2 / keyint=240 / keyint_min=24 / scenecut=40 / intra_refresh=0 / rc=crf / mbtree=0 / crf=18.7 / qcomp=0.70 / qpmin=0 / qpmax=69 / qpstep=4 / ip_ratio=1.20 / pb_ratio=1.20 / aq=2:0.90
Язык : English
Default : Да
Forced : Нет
Аудио #1
Идентификатор : 2
Формат : AC-3
Формат/Информация : Audio Coding 3
Расширение режима : CM (complete main)
Параметр Endianness формата : Big
Идентификатор кодека : A_AC3
Продолжительность : 1 ч. 35 м.
Вид битрейта : Постоянный
Битрейт : 448 Кбит/сек
Каналы : 6 каналов
Расположение каналов : Front: L C R, Side: L R, LFE
Частота : 48,0 КГц
Битовая глубина : 16 бит
Метод сжатия : С потерями
Размер потока : 307 Мбайт (8%)
Язык : Russian
Default : Да
Forced : Да
Аудио #2
Идентификатор : 3
Формат : AC-3
Формат/Информация : Audio Coding 3
Расширение режима : CM (complete main)
Параметр Endianness формата : Big
Идентификатор кодека : A_AC3
Продолжительность : 1 ч. 35 м.
Вид битрейта : Постоянный
Битрейт : 640 Кбит/сек
Каналы : 6 каналов
Расположение каналов : Front: L C R, Side: L R, LFE
Частота : 48,0 КГц
Битовая глубина : 16 бит
Метод сжатия : С потерями
Размер потока : 439 Мбайт (11%)
Язык : Japanese
Default : Нет
Forced : Да
Текст
Идентификатор : 4
Формат : UTF-8
Идентификатор кодека : S_TEXT/UTF8
Идентификатор кодека/Информация : UTF-8 Plain Text
Язык : English
Default : Нет
Forced : Нет
Меню
00:00:00.000 : en:00:00:00.000
00:07:42.837 : en:00:07:42.837
00:17:32.385 : en:00:17:32.385
00:22:22.633 : en:00:22:22.633
00:33:20.957 : en:00:33:20.957
00:40:31.512 : en:00:40:31.512
00:45:59.215 : en:00:45:59.215
00:56:14.413 : en:00:56:14.413
01:04:04.382 : en:01:04:04.382
01:11:39.587 : en:01:11:39.587
01:21:10.657 : en:01:21:10.657
01:29:29.239 : en:01:29:29.239
Скриншоты:

[Цитировать]



Показать сообщения:    

Текущее время: 09-Дек 03:05

Часовой пояс: UTC + 3


Вы не можете начинать темы
Вы не можете отвечать на сообщения
Вы не можете редактировать свои сообщения
Вы не можете удалять свои сообщения
Вы не можете голосовать в опросах
Вы не можете прикреплять файлы к сообщениям
Вы не можете скачивать файлы

!ВНИМАНИЕ!
Сайт не предоставляет электронные версии произведений, а занимается лишь коллекционированием и каталогизацией ссылок, присылаемых и публикуемых на форуме нашими читателями. Если вы являетесь правообладателем какого-либо представленного материала и не желаете, чтобы ссылка на него находилась в нашем каталоге, свяжитесь с нами, и мы незамедлительно удалим ее. Файлы для обмена на трекере предоставлены пользователями сайта, и администрация не несет ответственности за их содержание. Просьба не заливать файлы, защищенные авторскими правами, а также файлы нелегального содержания!