[ Сегодня идет свободное скачивание без начисления Download ]


Статистика раздачи
Нет
 
   
 
Top  
 
 
-Спасти мистера Бэнкса / Saving Mr. Banks (2013) BDRip
«Её гениальная книга. Его волшебная мечта»
- Год выпуска: 2013
Производство: США, Великобритания, Австралия / BBC Films
Жанр: Драма, история, биография, музыка
Перевод: Многоголосый закадровый (профессиональный)
Озвучка / Автор перевода: Baibako
Субтитры: Вшитые отключаемые
Язык субтитров: Английский (SDH)
Режиссер: Джон Ли Хэнкок / John Lee Hancock
Продюсер: Йен Колли, Элисон Оуэн, Филип Стюер
Актеры: Эмма Томпсон, Том Хэнкс, Пол Джаматти, Джейсон Шварцман, Колин Фаррелл, Энни Роуз Бакли, Рут Уилсон, Брэдли Уитфорд, Б.Дж. Новак, Лили Бигхем
Описание фильма:
История постановки классического художественного фильма Disney «Мэри Поппинс». Когда Уолт Дисней пообещал своим дочерям снять фильм по их любимой книге, сказке Памелы Трэверс «Мэри Поппинс», он даже не подозревал, что на исполнение этого обещания ему понадобится более двадцати лет. В попытке получить права на экранизацию книги, Уолт столкнулся со своенравной и несговорчивой британской писательницей, которая ни в коем случае не хотела, чтобы ее любимая героиня была «испорчена» голливудским подходом к созданию фильмов. Лишь в начале шестидесятых она согласилась лично приехать в Лос-Анджелес и начать переговоры об экранизации. На протяжении двух недель в 1961 году, пока длились переговоры с Памелой Трэверс, Уолт Дисней перепробовал все уловки. Он презентовал идеи и эскизы к фильму, пытался впечатлить писательницу великолепной музыкой, написанной талантливыми композиторами, братьями Шерман, и даже устраивал экскурсии в Диснейленд — однако Трэверс не шла ни на какие уговоры, и знаменитый кинематографист чуть было не отказался от своего замысла.

Дата мировой премьеры: 20 октября 2013
Дата российской премьеры: 23 января 2014, «WDSSPR»
Дата выхода DVD релиза: 22 апреля 2014, «Уолт Дисней Компани СНГ»
Дата выхода Blu-Ray релиза: 22 апреля 2014, «Уолт Дисней Компани СНГ»
Рейтинг MPAA: PG-13
Возраст: 12+
Продолжительность: 02:05:40
Качество видео: BDRip [CHD]
Видео: MPEG4_AVC/H.264, 1920x800 (2.40:1), ~9315 kbps, 23.976 fps, 0.253 bit/pixel
Аудио 1: DTS 5.1, 1536 kbps, 48 kHz [Русский - многоголосый закадровый]
Аудио 2: AC3 5.1, 640 kbps, 48 kHz [Русский - многоголосый закадровый]
Аудио 3: DTS 5.1, 1536 kbps, 48 kHz [Английский - оригинал]

x264 log

x264 [info]: frame I:1793 Avg QP:17.49 size:246424
x264 [info]: frame P:42591 Avg QP:19.94 size: 84676
x264 [info]: frame B:136408 Avg QP:22.16 size: 34651
Полное имя : D:\Спасти.мистера.Бэнкса-Saving.Mr.Banks.(2013).BDRip.[1080p].mkv
Формат : Matroska
Версия формата : Version 2
Размер файла : 11,4 Гбайт
Продолжительность : 2 ч. 5 м.
Общий поток : 13,0 Мбит/сек
Название фильма : Saving Mr. Banks (2013)
Дата кодирования : UTC 2014-03-06 20:18:56
Программа кодирования : mkvmerge v5.7.0 ('The Whirlwind') built on Aug 7 2012 14:11:40
Библиотека кодирования : libebml v1.2.3 + libmatroska v1.3.0
Attachment : Yes
Видео
Идентификатор : 1
Формат : AVC
Формат/Информация : Advanced Video Codec
Профиль формата : High@L4.1
Параметр CABAC формата : Да
Параметр ReFrames формата : 5 кадров
Идентификатор кодека : V_MPEG4/ISO/AVC
Продолжительность : 2 ч. 5 м.
Битрейт : 9315 Кбит/сек
Ширина : 1920 пикселей
Высота : 800 пикселей
Соотношение сторон : 2,40:1
Режим частоты кадров : Постоянный
Частота кадров : 23,976 кадра/сек
Цветовое пространство : YUV
Субдискретизация насыщенности : 4:2:0
Битовая глубина : 8 бит
Тип развёртки : Прогрессивная
Бит/(Пиксели*Кадры) : 0.253
Размер потока : 7,95 Гбайт (70%)
Заголовок : Спасти.мистера.Бэнкса-Saving.Mr.Banks.(2013).BDRip.[1080p]
Библиотека кодирования : x264 core 138 r2356 a1d3d17
Настройки программы : cabac=1 / ref=5 / deblock=1:-3:-3 / analyse=0x3:0x113 / me=umh / subme=10 / psy=1 / psy_rd=1.00:0.05 / mixed_ref=1 / me_range=32 / chroma_me=1 / trellis=2 / 8x8dct=1 / cqm=0 / deadzone=21,11 / fast_pskip=0 / chroma_qp_offset=-2 / threads=18 / lookahead_threads=1 / sliced_threads=0 / nr=0 / decimate=1 / interlaced=0 / bluray_compat=0 / constrained_intra=0 / bframes=5 / b_pyramid=2 / b_adapt=2 / b_bias=0 / direct=3 / weightb=1 / open_gop=0 / weightp=2 / keyint=250 / keyint_min=23 / scenecut=40 / intra_refresh=0 / rc=2pass / mbtree=0 / bitrate=9315 / ratetol=1.0 / qcomp=0.70 / qpmin=0 / qpmax=69 / qpstep=4 / cplxblur=20.0 / qblur=0.5 / ip_ratio=1.40 / pb_ratio=1.30 / aq=2:0.90
Язык : English
Default : Да
Forced : Нет
Аудио #1
Идентификатор : 2
Формат : DTS
Формат/Информация : Digital Theater Systems
Идентификатор кодека : A_DTS
Продолжительность : 2 ч. 5 м.
Вид битрейта : Постоянный
Битрейт : 1510 Кбит/сек
Каналы : 6 каналов
Расположение каналов : Front: L C R, Side: L R, LFE
Частота : 48,0 КГц
Битовая глубина : 24 бит
Метод сжатия : С потерями
Размер потока : 1,33 Гбайт (12%)
Заголовок : DTS 5.1 / 1536 kbps / MVO (Baibako)
Язык : Russian
Default : Да
Forced : Нет
Аудио #2
Идентификатор : 3
Формат : AC-3
Формат/Информация : Audio Coding 3
Расширение режима : CM (complete main)
Параметр Endianness формата : Big
Идентификатор кодека : A_AC3
Продолжительность : 2 ч. 5 м.
Вид битрейта : Постоянный
Битрейт : 640 Кбит/сек
Каналы : 6 каналов
Расположение каналов : Front: L C R, Side: L R, LFE
Частота : 48,0 КГц
Битовая глубина : 16 бит
Метод сжатия : С потерями
Размер потока : 575 Мбайт (5%)
Заголовок : AC3 5.1 / 640 kbps / MVO (Baibako)
Язык : Russian
Default : Нет
Forced : Нет
Аудио #3
Идентификатор : 4
Формат : DTS
Формат/Информация : Digital Theater Systems
Идентификатор кодека : A_DTS
Продолжительность : 2 ч. 5 м.
Вид битрейта : Постоянный
Битрейт : 1510 Кбит/сек
Каналы : 6 каналов
Расположение каналов : Front: L C R, Side: L R, LFE
Частота : 48,0 КГц
Битовая глубина : 24 бит
Метод сжатия : С потерями
Размер потока : 1,33 Гбайт (12%)
Заголовок : DTS 5.1 / 1536 kbps / Original
Язык : English
Default : Нет
Forced : Нет
Текст
Идентификатор : 5
Формат : UTF-8
Идентификатор кодека : S_TEXT/UTF8
Идентификатор кодека/Информация : UTF-8 Plain Text
Заголовок : SDH
Язык : English
Default : Нет
Forced : Нет
Меню
00:00:00.000 : en:Chapter 1
00:05:08.683 : en:Chapter 2
00:08:38.476 : en:Chapter 3
00:14:55.686 : en:Chapter 4
00:24:34.556 : en:Chapter 5
00:28:01.262 : en:Chapter 6
00:31:10.451 : en:Chapter 7
00:34:26.064 : en:Chapter 8
00:38:46.574 : en:Chapter 9
00:43:37.948 : en:Chapter 10
00:47:16.208 : en:Chapter 11
00:51:55.487 : en:Chapter 12
00:55:33.705 : en:Chapter 13
01:05:50.655 : en:Chapter 14
01:11:14.019 : en:Chapter 15
01:14:15.033 : en:Chapter 16
01:17:33.190 : en:Chapter 17
01:22:29.778 : en:Chapter 18
01:27:08.348 : en:Chapter 19
01:31:17.096 : en:Chapter 20
01:36:39.460 : en:Chapter 21
01:46:00.854 : en:Chapter 22
01:52:13.768 : en:Chapter 23
01:57:12.191 : en:Chapter 24
02:04:07.565 : en:Chapter 25Скриншоты:


[Цитировать]



Показать сообщения:    

Текущее время: 08-Дек 01:20

Часовой пояс: UTC + 3


Вы не можете начинать темы
Вы не можете отвечать на сообщения
Вы не можете редактировать свои сообщения
Вы не можете удалять свои сообщения
Вы не можете голосовать в опросах
Вы не можете прикреплять файлы к сообщениям
Вы не можете скачивать файлы

!ВНИМАНИЕ!
Сайт не предоставляет электронные версии произведений, а занимается лишь коллекционированием и каталогизацией ссылок, присылаемых и публикуемых на форуме нашими читателями. Если вы являетесь правообладателем какого-либо представленного материала и не желаете, чтобы ссылка на него находилась в нашем каталоге, свяжитесь с нами, и мы незамедлительно удалим ее. Файлы для обмена на трекере предоставлены пользователями сайта, и администрация не несет ответственности за их содержание. Просьба не заливать файлы, защищенные авторскими правами, а также файлы нелегального содержания!