[ Сегодня идет свободное скачивание без начисления Download ]


Статистика раздачи
Нет
 
   
 
Top  
 
 
-Август / August: Osage County (2013) BDRip
«Misery loves family»
- Год выпуска: 2013
Производство: США | Weinstein Company, The, Jean Doumanian Productions
Жанр: Драма
Перевод: Дублированный (Лицензия)
Субтитры: Вшитые отключаемые
Язык субтитров: Русский, Английский, Испанский-Дата мировой премьеры: 9 сентября 2013 (Канада, Кинофестиваль в Торонто)
Дата российской премьеры: 30 января 2014, «Премиум Фильм»
Дата выхода DVD релиза: 6 марта 2014, «CP Дистрибуция»
Дата выхода Blu-Ray релиза: 6 марта 2014, «CP Дистрибуция»-Режиссер: Джон Уэллс-Продюсер: Джордж Клуни, Джин Думаньян, Грант Хеслов-Актеры: Мэрил Стрип, Джулия Робертс, Юэн МакГрегор, Эбигейл Бреслин, Крис Купер, Марго Мартиндейл, Джулианна Николсон, Бенедикт Камбербэтч, Дермот Малруни, Джульетт Льюис, Мисти Апхэм, Сэм Шепард ...-Роли дублировали: Любовь Германова, Наталья Грачева, Денис Беспалый, Илья Исаев, Денис Некрасов, Ольга Голованова ...-Описание фильма:
В городе Талса, штат Оклахома, в отчий дом съезжаются члены большой семьи Уэстонов. Случилось несчастье и три дочери Барбара, Карен, Иви, их мать Виолетта, тетя Метти Фей, а также их мужья, дети и ухажеры собираются под одной крышей, пьют виски и выясняют отношения, обвиняя друг друга в предательствах, подавленных чувствах и изломанных судьбах. У каждого есть свой скелет в шкафу и все тайное, что обычно скрывается за фасадом благополучного дома, становится явным.-
Продолжительность: 02:00:49
Качество видео: BDRip 720p [CHD]
Видеокодек: MPEG-4 AVC/H.264
Битрейт видео: ~ 5015 Кбит/сек
Размер кадра: 1280 x 536 (2.388) at 24.000 fps : 0.305 Bits/Pixel
Аудио #1: DTS 1510 Кбит/сек (6ch), 48,0 КГц, 16 бит [Русский, Дубляж]
Аудио #2: AC3 448 Кбит/сек (6ch), 48,0 КГц, 16 бит [Русский, Дубляж]
Аудио #3: DTS 1510 Кбит/сек (6ch), 48,0 КГц, 24 бит [Английский]
Дополнительно: Сохранены оригинальные чаптеры как на Blu-ray
Релиз:

Трейлер / Ролик

[youtube]http://www.youtube.com/v/nHgyZTbSCZk&fs=1[/youtube]

Награды

Знаете ли вы, что...

• Фильм снят по мотивам пьесы Трэйси Леттса «Август: Графство Осейдж» (August: Osage County, 2007).
• Трэйси Леттс возражал против решения Харви Вайнштейна проводить для фильма кастинг британских актеров (Юэн МакГрегор, Бенедикт Камбербэтч, Андреа Райзборо, которая почти получила роль Карен, и т. д.), но безуспешно. Леттс был против, потому что по сценарию все персонажи были американцами. Однако он признал, что его точка зрения изменилась после просмотра фильма.
• Во время промотура фильма «Белоснежка: Месть гномов» (2012) Джулия Робертс расплакалась прямо во время интервью, когда она поделилась с репортером новостью о том, что в следующем фильме ей предстоит сыграть с Мэрил Стрип, которую она назвала своей любимой актрисой.
• Премьера спектакля «Август: Графство Осейдж» состоялась в Чикаго в 2007 году. Позже его также ставили в Нью-Йорке на Бродвее. В 2008 году Леттс удостоился Пулитцеровской премии за эту пьесу.
• Рене Зеллвегер и Андреа Райзборо рассматривались на роль в фильме. Райзборо была выбрана, но позже выбыла из проекта из-за несогласованности во времени съемок. Джульетт Льюис заменила ее.
• Джим Керри рассматривался на роль в фильме.
• Хлоя Грейс Морец прослушивалась на роль Джин Фордэм, но уступила Эбигейл Бреслин.
• У Эбигейл Бреслин был сильный жар во время прослушивания.
• Трэйси Леттс хотел, чтобы в фильме сыграли те же актеры, которые участвовали в сценической постановке. В конечном итоге ни один из них не появился в фильме.
• Во втором трейлере использовалась песня «Stubborn Love» группы The Lumineers.

Ошибки в фильме

• На автомобиле шерифа висят номерные знаки округа Оклахома, который находится в двух с половиной часах езды от округа Осейдж.

MediaInfo:

Уникальный идентификатор                 : 205636767414512626411982578923915806806 (0x9AB43367D451090C999DADDA5C958856)
Полное имя                               : G:\August.Osage.County.2013.BDRip.720p.NNM-CLUB.mkv
Формат                                   : Matroska
Версия формата                           : Version 2
Размер файла                             : 7,16 Гбайт
Продолжительность                        : 2 ч. 0 м.
Общий поток                              : 8481 Кбит/сек
Название фильма                          : August.Osage.County.2013.BluRay.720p.DTS.x264-CHD
Дата кодирования                         : UTC 2014-03-06 08:48:35
Программа кодирования                    : mkvmerge v2.9.9 ('Tutu') built on Nov 25 2009 21:13:32
Библиотека кодирования                   : libebml v0.7.9 + libmatroska v0.8.1
Видео
Идентификатор                            : 1
Формат                                   : AVC
Формат/Информация                        : Advanced Video Codec
Профиль формата                          : [url=mailto:High@L4.1]High@L4.1[/url]
Параметр CABAC формата                   : Да
Параметр ReFrames формата                : 11 кадров
Идентификатор кодека                     : V_MPEG4/ISO/AVC
Продолжительность                        : 2 ч. 0 м.
Битрейт                                  : 5015 Кбит/сек
Ширина                                   : 1280 пикселей
Высота                                   : 536 пикселей
Соотношение сторон                       : 2,40:1
Режим частоты кадров                     : Постоянный
Частота кадров                           : 24,000 кадра/сек
Цветовое пространство                    : YUV
Субдискретизация насыщенности            : 4:2:0
Битовая глубина                          : 8 бит
Тип развёртки                            : Прогрессивная
Бит/(Пиксели*Кадры)                      : 0.305
Размер потока                            : 4,09 Гбайт (57%)
Заголовок                                : -=Release for NNM-CLUB.RU=-
Библиотека кодирования                   : x264 core 138 r2356 a1d3d17
Настройки программы                      : cabac=1 / ref=11 / deblock=1:-3:-3 / analyse=0x3:0x113 / me=umh / subme=10 / psy=1 / psy_rd=1.00:0.05 / mixed_ref=1 / me_range=32 / chroma_me=1 / trellis=2 / 8x8dct=1 / cqm=0 / deadzone=21,11 / fast_pskip=0 / chroma_qp_offset=-2 / threads=18 / lookahead_threads=1 / sliced_threads=0 / nr=0 / decimate=1 / interlaced=0 / bluray_compat=0 / constrained_intra=0 / bframes=6 / b_pyramid=2 / b_adapt=2 / b_bias=0 / direct=3 / weightb=1 / open_gop=0 / weightp=2 / keyint=250 / keyint_min=24 / scenecut=40 / intra_refresh=0 / rc=2pass / mbtree=0 / bitrate=5015 / ratetol=1.0 / qcomp=0.70 / qpmin=0 / qpmax=69 / qpstep=4 / cplxblur=20.0 / qblur=0.5 / ip_ratio=1.40 / pb_ratio=1.30 / aq=2:0.90
Язык                                     : English
Default                                  : Нет
Forced                                   : Нет
Аудио #1
Идентификатор                            : 2
Формат                                   : DTS
Формат/Информация                        : Digital Theater Systems
Режим                                    : 16
Параметр Endianness формата              : Big
Идентификатор кодека                     : A_DTS
Продолжительность                        : 2 ч. 0 м.
Вид битрейта                             : Постоянный
Битрейт                                  : 1509 Кбит/сек
Каналы                                   : 6 каналов
Расположение каналов                     : Front: L C R, Side: L R, LFE
Частота                                  : 48,0 КГц
Битовая глубина                          : 16 бит
Метод сжатия                             : С потерями
Задержка видео                           : 11 мс.
Размер потока                            : 1,27 Гбайт (18%)
Заголовок                                : DTS.1509.Kbps (6ch) Russian (Дубляж)
Язык                                     : Russian
Default                                  : Нет
Forced                                   : Нет
Аудио #2
Идентификатор                            : 3
Формат                                   : AC-3
Формат/Информация                        : Audio Coding 3
Расширение режима                        : CM (complete main)
Параметр Endianness формата              : Big
Идентификатор кодека                     : A_AC3
Продолжительность                        : 2 ч. 0 м.
Вид битрейта                             : Постоянный
Битрейт                                  : 448 Кбит/сек
Каналы                                   : 6 каналов
Расположение каналов                     : Front: L C R, Side: L R, LFE
Частота                                  : 48,0 КГц
Битовая глубина                          : 16 бит
Метод сжатия                             : С потерями
Размер потока                            : 387 Мбайт (5%)
Заголовок                                : AC3.448.Kbps (6ch) Russian (Дубляж)
Язык                                     : Russian
Default                                  : Нет
Forced                                   : Нет
Аудио #3
Идентификатор                            : 4
Формат                                   : DTS
Формат/Информация                        : Digital Theater Systems
Режим                                    : 16
Параметр Endianness формата              : Big
Идентификатор кодека                     : A_DTS
Продолжительность                        : 2 ч. 0 м.
Вид битрейта                             : Постоянный
Битрейт                                  : 1509 Кбит/сек
Каналы                                   : 6 каналов
Расположение каналов                     : Front: L C R, Side: L R, LFE
Частота                                  : 48,0 КГц
Битовая глубина                          : 24 бит
Метод сжатия                             : С потерями
Задержка видео                           : 11 мс.
Размер потока                            : 1,27 Гбайт (18%)
Заголовок                                : DTS.1509.Kbps (6ch) English
Язык                                     : English
Default                                  : Нет
Forced                                   : Нет
Текст #1
Идентификатор                            : 5
Формат                                   : UTF-8
Идентификатор кодека                     : S_TEXT/UTF8
Идентификатор кодека/Информация          : UTF-8 Plain Text
Заголовок                                : Russian (Full)
Язык                                     : Russian
Default                                  : Нет
Forced                                   : Нет
Текст #2
Идентификатор                            : 6
Формат                                   : UTF-8
Идентификатор кодека                     : S_TEXT/UTF8
Идентификатор кодека/Информация          : UTF-8 Plain Text
Заголовок                                : English (Full)
Язык                                     : English
Default                                  : Нет
Forced                                   : Нет
Текст #3
Идентификатор                            : 7
Формат                                   : UTF-8
Идентификатор кодека                     : S_TEXT/UTF8
Идентификатор кодека/Информация          : UTF-8 Plain Text
Заголовок                                : Spanish (Full)
Язык                                     : Spanish
Default                                  : Нет
Forced                                   : Нет
Меню
00:00:00.000                             : en:00:00:00.000
00:07:14.833                             : en:00:07:14.833
00:13:55.583                             : en:00:13:55.583
00:25:15.833                             : en:00:25:15.833
00:33:02.167                             : en:00:33:02.167
00:40:18.167                             : en:00:40:18.167
00:47:25.250                             : en:00:47:25.250
00:58:19.417                             : en:00:58:19.417
01:08:45.625                             : en:01:08:45.625
01:18:35.833                             : en:01:18:35.833
01:29:46.125                             : en:01:29:46.125
01:38:34.542                             : en:01:38:34.542
01:44:39.458                             : en:01:44:39.458
01:49:44.667                             : en:01:49:44.667
01:55:27.833                             : en:01:55:27.833

x264 iNFO

x264 [info]: profile High, level 4.1
x264 [info]: frame I:1482 Avg QP:13.55 size:126504
x264 [info]: frame P:37500 Avg QP:15.66 size: 44517
x264 [info]: frame B:134997 Avg QP:17.96 size: 19884
Скриншоты:




[Цитировать]



Показать сообщения:    

Текущее время: 07-Дек 17:29

Часовой пояс: UTC + 3


Вы не можете начинать темы
Вы не можете отвечать на сообщения
Вы не можете редактировать свои сообщения
Вы не можете удалять свои сообщения
Вы не можете голосовать в опросах
Вы не можете прикреплять файлы к сообщениям
Вы не можете скачивать файлы

!ВНИМАНИЕ!
Сайт не предоставляет электронные версии произведений, а занимается лишь коллекционированием и каталогизацией ссылок, присылаемых и публикуемых на форуме нашими читателями. Если вы являетесь правообладателем какого-либо представленного материала и не желаете, чтобы ссылка на него находилась в нашем каталоге, свяжитесь с нами, и мы незамедлительно удалим ее. Файлы для обмена на трекере предоставлены пользователями сайта, и администрация не несет ответственности за их содержание. Просьба не заливать файлы, защищенные авторскими правами, а также файлы нелегального содержания!