[ Сегодня идет свободное скачивание без начисления Download ]


Статистика раздачи
Нет
 
   
 
Top  
 
 
-Джеймси / Jamesy Boy (2014) BDRip- Год выпуска: 2014
Производство: США | Star Thrower Entertainment, Synergics Films, Gama Entertainment Partners
Жанр: Драма, Мелодрама, Криминал
Перевод: Одноголосый закадровый, любительский
Озвучка / Автор перевода: datynet
Субтитры: Вшитые отключаемые
Язык субтитров: Русский, Английский
Внимание! Присутствует ненормативная лексика.-Дата мировой премьеры: 3 января 2014 (США)-Режиссер: Тревор Уайт-Продюсер: Скотт Медник, Мария Норман, Уэйн Роджерс-Актеры: Спенсер Лофранко, Мэри-Луиз Паркер, Винг Реймз, Джеймс Вудс, Таисса Фармига, Роза Салазар, Бен Розенфилд, Табу, Аарон Опара, Марта МакКоннелл ...-Описание фильма:
Реальная история Джеймса Бёрнса, который еще подростком связался с уличными бандами Денвера и в результате попал в тюрьму строгого режима. Но, несмотря на всё это, Джеймс всё же верит в светлое будущее.-
Продолжительность: 01:49:34
Качество видео: BDRip 720p [CHD]
Видеокодек: MPEG-4 AVC/H.264
Битрейт видео: ~ 5240 Кбит/сек
Размер кадра: 1280 x 534 (2.397) at 23.976 fps : 0.320 Bits/Pixel
Аудио #1: AC3 192 Кбит/сек (2ch), 48,0 КГц, 16 бит [Русский, VO datynet]
Аудио #2: AC3 448 Кбит/сек (6ch), 48,0 КГц, 16 бит [Английский]
Дополнительно: Сохранены оригинальные чаптеры как на Blu-ray
Релиз: CINЕMANIA

Трейлер / Ролик

[youtube]http://www.youtube.com/v/hlggYTbVNL4&fs=1[/youtube]

MediaInfo:

Уникальный идентификатор                 : 190040239164571422994170739157034025195 (0x8EF86B31885211EAAEAE12453D4B40EB)
Полное имя                               : G:\Jamesy.Boy.2014.BDRip.720p.mkv
Формат                                   : Matroska
Версия формата                           : Version 4 / Version 2
Размер файла                             : 4,50 Гбайт
Продолжительность                        : 1 ч. 49 м.
Общий поток                              : 5878 Кбит/сек
Дата кодирования                         : UTC 2014-03-05 21:27:21
Программа кодирования                    : mkvmerge v6.8.0 ('Theme for Great Cities') 64bit built on Mar  2 2014 21:34:26
Библиотека кодирования                   : libebml v1.3.0 + libmatroska v1.4.1
Видео
Идентификатор                            : 1
Формат                                   : AVC
Формат/Информация                        : Advanced Video Codec
Профиль формата                          : [url=mailto:High@L4.1]High@L4.1[/url]
Параметр CABAC формата                   : Да
Параметр ReFrames формата                : 10 кадров
Идентификатор кодека                     : V_MPEG4/ISO/AVC
Продолжительность                        : 1 ч. 49 м.
Битрейт                                  : 5240 Кбит/сек
Ширина                                   : 1280 пикселей
Высота                                   : 534 пикселя
Соотношение сторон                       : 2,40:1
Режим частоты кадров                     : Постоянный
Частота кадров                           : 23,976 кадра/сек
Цветовое пространство                    : YUV
Субдискретизация насыщенности            : 4:2:0
Битовая глубина                          : 8 бит
Тип развёртки                            : Прогрессивная
Бит/(Пиксели*Кадры)                      : 0.320
Размер потока                            : 3,92 Гбайт (87%)
Библиотека кодирования                   : x264 core 138 r2356 a1d3d17
Настройки программы                      : cabac=1 / ref=10 / deblock=1:-3:-3 / analyse=0x3:0x113 / me=umh / subme=10 / psy=1 / psy_rd=1.00:0.05 / mixed_ref=1 / me_range=32 / chroma_me=1 / trellis=2 / 8x8dct=1 / cqm=0 / deadzone=21,11 / fast_pskip=0 / chroma_qp_offset=-2 / threads=18 / lookahead_threads=1 / sliced_threads=0 / nr=0 / decimate=1 / interlaced=0 / bluray_compat=0 / constrained_intra=0 / bframes=4 / b_pyramid=2 / b_adapt=2 / b_bias=0 / direct=3 / weightb=1 / open_gop=0 / weightp=2 / keyint=250 / keyint_min=23 / scenecut=40 / intra_refresh=0 / rc=2pass / mbtree=0 / bitrate=5240 / ratetol=1.0 / qcomp=0.70 / qpmin=0 / qpmax=69 / qpstep=4 / cplxblur=20.0 / qblur=0.5 / ip_ratio=1.40 / pb_ratio=1.30 / aq=2:1.00
Язык                                     : English
Default                                  : Да
Forced                                   : Нет
Аудио #1
Идентификатор                            : 2
Формат                                   : AC-3
Формат/Информация                        : Audio Coding 3
Расширение режима                        : CM (complete main)
Параметр Endianness формата              : Big
Идентификатор кодека                     : A_AC3
Продолжительность                        : 1 ч. 49 м.
Вид битрейта                             : Постоянный
Битрейт                                  : 192 Кбит/сек
Каналы                                   : 2 канала
Расположение каналов                     : Front: L R
Частота                                  : 48,0 КГц
Битовая глубина                          : 16 бит
Метод сжатия                             : С потерями
Размер потока                            : 150 Мбайт (3%)
Заголовок                                : datynet
Язык                                     : Russian
Default                                  : Да
Forced                                   : Да
Аудио #2
Идентификатор                            : 3
Формат                                   : AC-3
Формат/Информация                        : Audio Coding 3
Расширение режима                        : CM (complete main)
Параметр Endianness формата              : Big
Идентификатор кодека                     : A_AC3
Продолжительность                        : 1 ч. 49 м.
Вид битрейта                             : Постоянный
Битрейт                                  : 448 Кбит/сек
Каналы                                   : 6 каналов
Расположение каналов                     : Front: L C R, Side: L R, LFE
Частота                                  : 48,0 КГц
Битовая глубина                          : 16 бит
Метод сжатия                             : С потерями
Размер потока                            : 351 Мбайт (8%)
Язык                                     : English
Default                                  : Нет
Forced                                   : Нет
Текст #1
Идентификатор                            : 4
Формат                                   : UTF-8
Идентификатор кодека                     : S_TEXT/UTF8
Идентификатор кодека/Информация          : UTF-8 Plain Text
Заголовок                                : notabenoid
Язык                                     : Russian
Default                                  : Нет
Forced                                   : Нет
Текст #2
Идентификатор                            : 5
Формат                                   : UTF-8
Идентификатор кодека                     : S_TEXT/UTF8
Идентификатор кодека/Информация          : UTF-8 Plain Text
Язык                                     : English
Default                                  : Нет
Forced                                   : Нет
Меню
00:00:00.000                             : en:00:00:00.000
00:06:14.124                             : en:00:06:14.124
00:12:15.068                             : en:00:12:15.068
00:17:34.136                             : en:00:17:34.136
00:24:48.529                             : en:00:24:48.529
00:31:50.867                             : en:00:31:50.867
00:38:51.663                             : en:00:38:51.663
00:45:47.745                             : en:00:45:47.745
00:52:40.824                             : en:00:52:40.824
00:59:44.331                             : en:00:59:44.331
01:08:42.160                             : en:01:08:42.160
01:15:39.118                             : en:01:15:39.118
01:20:36.165                             : en:01:20:36.165
01:28:23.965                             : en:01:28:23.965
01:35:22.634                             : en:01:35:22.634
01:44:07.241                             : en:01:44:07.241

x264 iNFO

x264 [info]: profile High, level 4.1
x264 [info]: frame I:1305 Avg QP:12.69 size:130962
x264 [info]: frame P:42115 Avg QP:15.04 size: 50380
x264 [info]: frame B:114200 Avg QP:16.77 size: 17598
Скриншоты:




[Цитировать]



Показать сообщения:    

Текущее время: 11-Дек 14:53

Часовой пояс: UTC + 3


Вы не можете начинать темы
Вы не можете отвечать на сообщения
Вы не можете редактировать свои сообщения
Вы не можете удалять свои сообщения
Вы не можете голосовать в опросах
Вы не можете прикреплять файлы к сообщениям
Вы не можете скачивать файлы

!ВНИМАНИЕ!
Сайт не предоставляет электронные версии произведений, а занимается лишь коллекционированием и каталогизацией ссылок, присылаемых и публикуемых на форуме нашими читателями. Если вы являетесь правообладателем какого-либо представленного материала и не желаете, чтобы ссылка на него находилась в нашем каталоге, свяжитесь с нами, и мы незамедлительно удалим ее. Файлы для обмена на трекере предоставлены пользователями сайта, и администрация не несет ответственности за их содержание. Просьба не заливать файлы, защищенные авторскими правами, а также файлы нелегального содержания!