[ Сегодня идет свободное скачивание без начисления Download ]


Статистика раздачи
Нет
 
   
 
Top  
 
 
- Один плюс один дома / 1+1 дома (2014) SATRip (Серии 1-2 из 2) - Режиссер / Телекомпания: 1+1
Русское название: Один плюс один дома / 1+1 дома
Год выпуска: 2014
Жанр: ТВ-Шоу, Мюзикл
Выпущено: Украина, Студия 95 Квартал
Описание:
01. Новый год
" 1+1 дома" - это новогодний музыкальный фильм , созданный "Кварталом 95". В основе мюзикла лежит любимая всеми голливудская комедия с Маколей Калкин " Один дома " . Специально для съемки " 1+1 дома " было создано в съемочном павильоне целый город в стиле старой Праги . В нем около 20 домов , кафе , центральная площадь , магазины , лес , а также вагон поезда " Хюндай".
В отличие от известного всем фильма " Один дома " в мюзикле " 1 +1 дома" главных героев двое - Миша и Соня. Их роли сыграют 9 - летний Иван Шмаков , для которого " 1 +1 дома" уже 14 картина в фильмографии , и 10- летняя Анна Полищук , которая снималась в 5 - м и 6 - м сезонах "Сватов" . Бандитов в этой ленте сыграли " кварталовцы " - Владимир Зеленский , Евгений Кошевой и Елена Кравец.
02. 8 Марта
После новогодней премьеры мюзикла, на экраны выходит вторая часть: "1+1 дома: 8 марта". И вновь Соня и Миша которых родители оставили хозяйничать самих дома в первом фильме, теперь остались дома с няней. Но и теперь приключения не обошли их стороной: уже знакомые нам бандиты сбежали с тюрьмы, и направились прямиком к цели... Очень смешной мюзикл с лучшими комедиантами 95 квартала: Владимиром Зеленским и Женей Кошевым.
Актеры: Иван Шмаков, Анна Полищук, Владимир Зеленский, Евгений Кошевой, Елена Кравец, Людмила Барбир, Марина Леончук, Юрий Горбунов, Андрей Доманский, Руслан Сеничкин, Руслана Лыжичко, Александр Пономарев, Олег Скрипка, Потап, Анастасия Каменских, Анатолий Анатолич, Лидия Таран.
Продолжительность: 03:31:19
Видеокодек: XviD
Качество видео: SATRip
Битрейт видео: ~2100 kb/s
Размер кадра: 720 x 400
Аудиокодек: MP3, 2.0ch.
Битрейт аудио: 192 kb/s

MediaInfo:

Формат : AVI
Формат/Информация : Audio Video Interleave
Размер файла : 1,79 Гбайт
Продолжительность : 1 ч. 50 м.
Общий поток : 2322 Кбит/сек
Программа кодирования : VirtualDubModRus 1.5.10.2 (build 2542/release)
Библиотека кодирования : VirtualDubMod build 2542/release
Видео
Идентификатор : 0
Формат : MPEG-4 Visual
Профиль формата : Advanced [email protected]
Параметр BVOP формата : 1
Параметр QPel формата : Нет
Параметр GMC формата : Без точки перехода
Параметр матрицы формата : Default (H.263)
Идентификатор кодека : XVID
Идентификатор кодека/Подсказка : XviD
Продолжительность : 1 ч. 50 м.
Битрейт : 2121 Кбит/сек
Ширина : 720 пикселей
Высота : 400 пикселей
Соотношение сторон : 16:9
Частота кадров : 25,000 кадров/сек
Цветовое пространство : YUV
Субдискретизация насыщенности : 4:2:0
Битовая глубина : 8 бит
Тип развёртки : Прогрессивная
Метод сжатия : С потерями
Бит/(Пиксели*Кадры) : 0.295
Размер потока : 1,63 Гбайт (91%)
Библиотека кодирования : XviD 1.2.1 (UTC 2008-12-04)
Аудио
Идентификатор : 1
Формат : MPEG Audio
Версия формата : Version 1
Профиль формата : Layer 3
Режим : Joint stereo
Расширение режима : MS Stereo
Идентификатор кодека : 55
Идентификатор кодека/Подсказка : MP3
Продолжительность : 1 ч. 50 м.
Вид битрейта : Постоянный
Битрейт : 192 Кбит/сек
Каналы : 2 канала
Частота : 48,0 КГц
Метод сжатия : С потерями
Размер потока : 151 Мбайт (8%)
Выравнивание : Соединение по промежуткам
Продолжительность промежутка : 40 мс. (1,00 видеокадр)
Время предзагрузки промежутка : 504 мс.
Библиотека кодирования : LAME3.99r
Настройки программы : -m j -V 4 -q 2 -lowpass 18.6 -b 192
Формат : AVI
Формат/Информация : Audio Video Interleave
Размер файла : 1,52 Гбайт
Продолжительность : 1 ч. 41 м.
Общий поток : 2151 Кбит/сек
Программа кодирования : VirtualDubModRus 1.5.10.2 (build 2542/release)
Библиотека кодирования : VirtualDubMod build 2542/release
Видео
Идентификатор : 0
Формат : MPEG-4 Visual
Профиль формата : Advanced [email protected]
Параметр BVOP формата : 1
Параметр QPel формата : Нет
Параметр GMC формата : Без точки перехода
Параметр матрицы формата : Default (MPEG)
Идентификатор кодека : XVID
Идентификатор кодека/Подсказка : XviD
Продолжительность : 1 ч. 41 м.
Битрейт : 1950 Кбит/сек
Ширина : 720 пикселей
Высота : 400 пикселей
Соотношение сторон : 16:9
Частота кадров : 25,000 кадров/сек
Цветовое пространство : YUV
Субдискретизация насыщенности : 4:2:0
Битовая глубина : 8 бит
Тип развёртки : Прогрессивная
Метод сжатия : С потерями
Бит/(Пиксели*Кадры) : 0.271
Размер потока : 1,38 Гбайт (91%)
Библиотека кодирования : XviD 1.2.1 (UTC 2008-12-04)
Аудио
Идентификатор : 1
Формат : MPEG Audio
Версия формата : Version 1
Профиль формата : Layer 3
Режим : Joint stereo
Расширение режима : MS Stereo
Идентификатор кодека : 55
Идентификатор кодека/Подсказка : MP3
Продолжительность : 1 ч. 41 м.
Вид битрейта : Постоянный
Битрейт : 192 Кбит/сек
Каналы : 2 канала
Частота : 48,0 КГц
Метод сжатия : С потерями
Размер потока : 139 Мбайт (9%)
Выравнивание : Соединение по промежуткам
Продолжительность промежутка : 40 мс. (1,00 видеокадр)
Время предзагрузки промежутка : 504 мс.
Библиотека кодирования : LAME3.99r
Настройки программы : -m j -V 4 -q 2 -lowpass 18.6 -b 192
Скриншоты:

[Цитировать]



Показать сообщения:    

Текущее время: 05-Дек 05:27

Часовой пояс: UTC + 3


Вы не можете начинать темы
Вы не можете отвечать на сообщения
Вы не можете редактировать свои сообщения
Вы не можете удалять свои сообщения
Вы не можете голосовать в опросах
Вы не можете прикреплять файлы к сообщениям
Вы не можете скачивать файлы

!ВНИМАНИЕ!
Сайт не предоставляет электронные версии произведений, а занимается лишь коллекционированием и каталогизацией ссылок, присылаемых и публикуемых на форуме нашими читателями. Если вы являетесь правообладателем какого-либо представленного материала и не желаете, чтобы ссылка на него находилась в нашем каталоге, свяжитесь с нами, и мы незамедлительно удалим ее. Файлы для обмена на трекере предоставлены пользователями сайта, и администрация не несет ответственности за их содержание. Просьба не заливать файлы, защищенные авторскими правами, а также файлы нелегального содержания!