[ Сегодня идет свободное скачивание без начисления Download ]


Статистика раздачи
Нет
 
   
 
Top  
 
 
-Тётушки (2013) DVDRip- Год выпуска: 2013
Производство: Россия, Латвия, Трогтр Продакшн
Жанр: Комедия
Перевод: Не требуется (русский) | Лицензия |
Дата мировой премьеры: 10 января 2014
Дата российской премьеры: 9 января 2014, «DMG»
Дата выхода DVD релиза: 4 марта 2014, «ВС трейд»
Режиссер: Александр Кананович
Актеры: Николай Ефремов, Никита Ефремов, Михаил Ефремов, Екатерина Васильева, Альберт Филозов, Ивар Калныньш, Валентина Теличкина, Мирдза Мартинсоне, Камиль Ларин, Татьяна Рудина
Описание фильма:
Чудеса становятся реальностью, особенно, если кому-то это очень сильно нужно. Героям фильма Маше и её деду, накануне Рождества грозит опасность о которой они ещё не подозревают. И поэтому они совершенно беззащитны перед грядущими неприятностями. Но помощь придёт совершенно с неожиданной стороны… Все мечты в эту волшебную ночь исполнятся самым невероятным образом — главное чтобы в сердце жила настоящая любовь…

Продолжительность: 01:30:28
Качество видео: DVDRip
Видеокодек: Xvid
Битрейт видео: ~1022 kb/s
Размер кадра: 720x400
Аудиокодек: MP3
Битрейт аудио: 128 kb/s (2 сh)
Сэмпл: Скачать
трейлер

MI

Общее
Полное имя : Tetyshki.2013.O.DVDRip.700Mb.avi
Формат : AVI
Формат/Информация : Audio Video Interleave
Размер файла : 753 Мбайт
Продолжительность : 1 ч. 30 м.
Общий поток : 1163 Кбит/сек
Программа кодирования : Lavf52.93.0
Видео
Идентификатор : 0
Формат : xvid
Идентификатор кодека : xvid
Продолжительность : 1 ч. 30 м.
Битрейт : 1022 Кбит/сек
Ширина : 720 пикселей
Высота : 400 пикселей
Соотношение сторон : 16:9
Частота кадров : 25,000 кадров/сек
Бит/(Пиксели*Кадры) : 0.142
Размер потока : 661 Мбайт (88%)
Аудио
Идентификатор : 1
Формат : MPEG Audio
Версия формата : Version 1
Профиль формата : Layer 3
Режим : Joint stereo
Расширение режима : MS Stereo
Идентификатор кодека : 55
Идентификатор кодека/Подсказка : MP3
Продолжительность : 1 ч. 30 м.
Вид битрейта : Постоянный
Битрейт : 128 Кбит/сек
Каналы : 2 канала
Частота : 48,0 КГц
Метод сжатия : С потерями
Размер потока : 82,8 Мбайт (11%)
Выравнивание : Соединение по промежуткам
Продолжительность промежутка : 24 мс. (0,60 видеокадр)
Время предзагрузки промежутка : 48 мс.
Библиотека кодирования : LAME3.98.4
Скриншоты:

[Цитировать]



Показать сообщения:    

Текущее время: 06-Дек 13:17

Часовой пояс: UTC + 3


Вы не можете начинать темы
Вы не можете отвечать на сообщения
Вы не можете редактировать свои сообщения
Вы не можете удалять свои сообщения
Вы не можете голосовать в опросах
Вы не можете прикреплять файлы к сообщениям
Вы не можете скачивать файлы

!ВНИМАНИЕ!
Сайт не предоставляет электронные версии произведений, а занимается лишь коллекционированием и каталогизацией ссылок, присылаемых и публикуемых на форуме нашими читателями. Если вы являетесь правообладателем какого-либо представленного материала и не желаете, чтобы ссылка на него находилась в нашем каталоге, свяжитесь с нами, и мы незамедлительно удалим ее. Файлы для обмена на трекере предоставлены пользователями сайта, и администрация не несет ответственности за их содержание. Просьба не заливать файлы, защищенные авторскими правами, а также файлы нелегального содержания!