[ Сегодня идет свободное скачивание без начисления Download ]


Статистика раздачи
Нет
 
   
 
Top  
 
 
-ИНТЕРНЫ - 10- Год выпуска: 2013
Производство: Россия, ТНТ
Жанр: Комедия, ситком
Продолжительность: 00:25:00

-Режиссёр: Максим Пежемский , Радда Новикова
-В ролях: Иван Охлобыстин, Яна Гурьянова, Илья Глинников, Александр Ильин, Байрон Один Ланд, Светлана Пермякова, Юлия Назаренко-Благая, Вадим Демчог, Светлана Камынина, Юлия Назаренко, Татьяна Лянник, Мария Пирогова, Лидия Арефьева, Максим Артамонов и др.-Описание: В новом 10 сезоне интернов к доктору Быкову прибудут новые совсем зеленые врачи (Интерны), над которыми он начнет глумиться так же как и со старыми. Какой сюжет нам приготовили сценаристы на этот раз мы узнаем уже скоро...-Сэмпл-Качество: WEBRip
Формат: AVI
Видео кодек: XviD
Аудио кодек: MP3
Видео: 640x368 (1.74:1), 24.900 fps, XviD build 50 ~1052 kbps avg, 0.18 bit/pixel
Аудио: 48 kHz, MPEG Layer 3, 2 ch, ~192.00 kbps avg
-

MI

Общее
Полное имя                               : D:\Downloads\Интерны - 10.WEB-DLRip\Interny.S10.E01.F181.2013.WEB-DLRip.avi
Формат                                   : AVI
Формат/Информация                        : Audio Video Interleave
Размер файла                             : 224 Мбайт
Продолжительность                        : 24 м.
Общий поток                              : 1254 Кбит/сек
Библиотека кодирования                   : VirtualDub build 32593/release
Видео
Идентификатор                            : 0
Формат                                   : MPEG-4 Visual
Профиль формата                          : Advanced [email protected]
Параметр BVOP формата                    : 1
Параметр QPel формата                    : Нет
Параметр GMC формата                     : Без точки перехода
Параметр матрицы формата                 : Default (H.263)
Идентификатор кодека                     : XVID
Идентификатор кодека/Подсказка           : XviD
Продолжительность                        : 24 м.
Битрейт                                  : 1053 Кбит/сек
Ширина                                   : 640 пикселей
Высота                                   : 368 пикселей
Соотношение сторон                       : 16:9
Частота кадров                           : 24,900 кадров/сек
Частота кадров в оригинале               : 24,909 кадров/сек
Цветовое пространство                    : YUV
Субдискретизация насыщенности            : 4:2:0
Битовая глубина                          : 8 бит
Тип развёртки                            : Прогрессивная
Метод сжатия                             : С потерями
Бит/(Пиксели*Кадры)                      : 0.179
Размер потока                            : 188 Мбайт (84%)
Библиотека кодирования                   : XviD 1.2.1 (UTC 2008-12-04)
Аудио
Идентификатор                            : 1
Формат                                   : MPEG Audio
Версия формата                           : Version 1
Профиль формата                          : Layer 3
Режим                                    : Joint stereo
Расширение режима                        : MS Stereo
Идентификатор кодека                     : 55
Идентификатор кодека/Подсказка           : MP3
Продолжительность                        : 24 м.
Вид битрейта                             : Постоянный
Битрейт                                  : 192 Кбит/сек
Каналы                                   : 2 канала
Частота                                  : 44,1 КГц
Метод сжатия                             : С потерями
Размер потока                            : 34,2 Мбайт (15%)
Выравнивание                             : Разделение по промежуткам
Продолжительность промежутка             : 40  мс. (1,00 видеокадр)
Время предзагрузки промежутка            : 500  мс.
Библиотека кодирования                   : LAME3.98.2

Скриншоты

[Цитировать]



Показать сообщения:    

Текущее время: 05-Дек 23:43

Часовой пояс: UTC + 3


Вы не можете начинать темы
Вы не можете отвечать на сообщения
Вы не можете редактировать свои сообщения
Вы не можете удалять свои сообщения
Вы не можете голосовать в опросах
Вы не можете прикреплять файлы к сообщениям
Вы не можете скачивать файлы

!ВНИМАНИЕ!
Сайт не предоставляет электронные версии произведений, а занимается лишь коллекционированием и каталогизацией ссылок, присылаемых и публикуемых на форуме нашими читателями. Если вы являетесь правообладателем какого-либо представленного материала и не желаете, чтобы ссылка на него находилась в нашем каталоге, свяжитесь с нами, и мы незамедлительно удалим ее. Файлы для обмена на трекере предоставлены пользователями сайта, и администрация не несет ответственности за их содержание. Просьба не заливать файлы, защищенные авторскими правами, а также файлы нелегального содержания!