[ Сегодня идет свободное скачивание без начисления Download ]


Статистика раздачи
Нет
 
   
 
Top  
 
 
-Мистериум. Начало / Женщина в клетке / Kvinden i buret (2013) HDRip- Год выпуска: 2013
Производство: Дания, Германия, Швеция
Жанр: Триллер, Криминал, Детектив
Перевод: Многоголосый закадровый, профессиональный
Дата мировой премьеры: 10 августа 2013
Дата российской премьеры: 20 февраля 2014, «Русский Репортаж»
Режиссер: Миккель Нёргор
Актеры: Николай Ли Каас, Фарес Фарес, Соня Рихтер, Клаус Маак Бансен, Расмус Ботофт, Эрнст Бойе, Кеннет Кармон
Описание фильма:
Экранизация приключений детективов Карла Мерке и Асада, работающих в Департаменте Q, занимающемся «глухарями». Взявшись за дело пятилетней давности об исчезновении женщины по имени Мерет они внезапно выходят на след маньяка-психопата, но преследуя его по всей стране, все равно на шаг отстают.

Продолжительность: 01:36:33
Качество видео: HDRip
Видеокодек: Xvid
Битрейт видео: ~946 Кбит/сек
Размер кадра: 720x304
Аудиокодек: MP3 (2Ch)
Битрейт аудио: 128 Кбит/сек
Сэмпл: Скачать
трейлер

MI

Общее
Полное имя : Jenwuna.v.kletke.2013.P.HDRip.700Mb.avi
Формат : AVI
Формат/Информация : Audio Video Interleave
Размер файла : 751 Мбайт
Продолжительность : 1 ч. 36 м.
Общий поток : 1087 Кбит/сек
Программа кодирования : Lavf52.93.0
Видео
Идентификатор : 0
Формат : xvid
Идентификатор кодека : xvid
Продолжительность : 1 ч. 36 м.
Битрейт : 946 Кбит/сек
Ширина : 720 пикселей
Высота : 304 пикселя
Соотношение сторон : 2,40:1
Частота кадров : 24,000 кадра/сек
Бит/(Пиксели*Кадры) : 0.180
Размер потока : 653 Мбайт (87%)
Аудио
Идентификатор : 1
Формат : MPEG Audio
Версия формата : Version 1
Профиль формата : Layer 3
Режим : Joint stereo
Расширение режима : MS Stereo
Идентификатор кодека : 55
Идентификатор кодека/Подсказка : MP3
Продолжительность : 1 ч. 36 м.
Вид битрейта : Постоянный
Битрейт : 128 Кбит/сек
Каналы : 2 канала
Частота : 48,0 КГц
Метод сжатия : С потерями
Размер потока : 88,4 Мбайт (12%)
Выравнивание : Соединение по промежуткам
Продолжительность промежутка : 24 мс. (0,58 видеокадр)
Время предзагрузки промежутка : 48 мс.
Библиотека кодирования : LAME3.98.4

Скриншоты:

Время раздачи: 16:00-02:00

[Цитировать]

Топик был перенесен из форума Новинки кинопроката в форум Триллер
Henkok



Показать сообщения:    

Текущее время: 04-Дек 17:20

Часовой пояс: UTC + 3


Вы не можете начинать темы
Вы не можете отвечать на сообщения
Вы не можете редактировать свои сообщения
Вы не можете удалять свои сообщения
Вы не можете голосовать в опросах
Вы не можете прикреплять файлы к сообщениям
Вы не можете скачивать файлы

!ВНИМАНИЕ!
Сайт не предоставляет электронные версии произведений, а занимается лишь коллекционированием и каталогизацией ссылок, присылаемых и публикуемых на форуме нашими читателями. Если вы являетесь правообладателем какого-либо представленного материала и не желаете, чтобы ссылка на него находилась в нашем каталоге, свяжитесь с нами, и мы незамедлительно удалим ее. Файлы для обмена на трекере предоставлены пользователями сайта, и администрация не несет ответственности за их содержание. Просьба не заливать файлы, защищенные авторскими правами, а также файлы нелегального содержания!