[ Сегодня идет свободное скачивание без начисления Download ]


Статистика раздачи
Нет
 
   
 
Top  
 
 
-Мошенничество / Swindle (2013) WEB-DLRip- Год выпуска: 2013
Производство: США, Канада
Жанр: Приключения, Семейный, Детектив
Перевод: Дублированный
Озвучка / Автор перевода: [Канал Disney]
Субтитры: Отсутствуют
Дата мировой премьеры: 24 августа 2013
Режиссер: Джонатан Джадж
Актеры: Дженнет МакКарди, Ной Кроуфорд, Крис О’Нил, Сиэра Браво, Фред Эвануик, Сэнди Робсон, Ариана Гранде, Ной Манк, Фейн Тсе, Маттео Стефан
Описание фильма:
Бен и Гриффин находят старую бейсбольную карточку Хонуса Вагнера и решают продать её, чтобы Бену не пришлось выселяться из своего дома. Они отправляются в магазин для коллекционеров, которым владеет парень по имени Мошеннилл. После долгих торгов хозяин магазина соглашается заплатить ребятам за карточку 300 долларов. Гордясь собой, ребята отправляются домой, но позже они узнают, что эта карточка стоит намного больше - на целых 1,2 миллиона. Гриффина и Бена обманули. Теперь Гриффин Бинг хочет обмануть самого мошенника и вернуть себе карточку, которой тот завладел столь нечестным образом. Всеобщий любимец, он собирает команду, чтобы провернуть свою затею...

Продолжительность: 01:31:55
Качество видео: WEB-DLRip
Видеокодек: Xvid
Битрейт видео: ~1000 kbps
Размер кадра: 720*400
Аудиокодек: MP3 2.0
Битрейт аудио: 128.00 kbps
Сэмпл: Скачать

MI

Общее
Полное имя                               : D:\Рипы выкладка [Deadmauvlad]\Рипы готовые\Swindle.2013.WEB-DLRip.Deadmauvlad.D.Disney.avi
Формат                                   : AVI
Формат/Информация                        : Audio Video Interleave
Размер файла                             : 748 Мбайт
Продолжительность                        : 1 ч. 31 м.
Общий поток                              : 1138 Кбит/сек
Название фильма                          : Swindle.2013.WEB-DLRip.Deadmauvlad.D.Disney
Режиссёр                                 : Deadmauvlad
Жанр                                     : Подростковое кино
Программа кодирования                    : VirtualDubMod 1.5.10.3 | [url=http://www.virtualdub-fr.org]www.virtualdub-fr.org[/url] || (build 2550/release)
Формат оригинала/Имя                     : Фильм
Видео
Идентификатор                            : 0
Формат                                   : MPEG-4 Visual
Профиль формата                          : Advanced Simple@L5
Параметр BVOP формата                    : 1
Параметр QPel формата                    : Нет
Параметр GMC формата                     : Без точки перехода
Параметр матрицы формата                 : Выборочная
Идентификатор кодека                     : XVID
Идентификатор кодека/Подсказка           : XviD
Продолжительность                        : 1 ч. 31 м.
Битрейт                                  : 1001 Кбит/сек
Ширина                                   : 720 пикселей
Высота                                   : 400 пикселей
Соотношение сторон                       : 16:9
Частота кадров                           : 23,976 кадра/сек
Цветовое пространство                    : YUV
Субдискретизация насыщенности            : 4:2:0
Битовая глубина                          : 8 бит
Тип развёртки                            : Прогрессивная
Метод сжатия                             : С потерями
Бит/(Пиксели*Кадры)                      : 0.145
Размер потока                            : 658 Мбайт (88%)
Библиотека кодирования                   : XviD 73
Аудио
Идентификатор                            : 1
Формат                                   : MPEG Audio
Версия формата                           : Version 1
Профиль формата                          : Layer 3
Режим                                    : Joint stereo
Расширение режима                        : MS Stereo
Идентификатор кодека                     : 55
Идентификатор кодека/Подсказка           : MP3
Продолжительность                        : 1 ч. 31 м.
Вид битрейта                             : Постоянный
Битрейт                                  : 128 Кбит/сек
Каналы                                   : 2 канала
Частота                                  : 48,0 КГц
Метод сжатия                             : С потерями
Размер потока                            : 84,2 Мбайт (11%)
Выравнивание                             : Соединение по промежуткам
Продолжительность промежутка             : 42  мс. (1,00 видеокадр)
Время предзагрузки промежутка            : 504  мс.
Библиотека кодирования                   : LAME3.99r
Настройки программы                      : -m j -V 4 -q 2 -lowpass 17 -b 128

Скриншоты


Рецензия:

Обмануть обманщика
Честно, не читал книги, на которую снят фильм, но его удалось посмотреть на блоке «Никелодион».
Что могу сказать? Годно, неплохо, но в фильме допущено несколько досадных ошибок, что кстати допустимо для фильма который не показывали в кинотератре.
Завязка стара как мир — парочку героев обманывает хитрый продавец антиквариата, фамилия которого подозрительно переводится как «Мошенник», и главный герой фильма, Гриффин решает собрать своих «друзей Оушена», чтобы обокрасть обманщика, ну а что, карме не вредит.
Сюжет удивительным образом проседает во всех моментах, главный герой, заявленный как «Мозги» создаёт такой хитроумный план, что ему бы позавидовал сам Фред из «Скуби-Ду». Куча бессмысленных действий, глупые завязки, как будто тянут время фильма, который бы уложился в парочку серий, что на деле было бы намного лучше чем создавать большую ленту (благо концовка позволяет).
Но самая главная фишка, которая и была заявлена изначально — актёры. Это солянки из популярных актёров сериалов канала. Тут и Сэм из «iCarly», и Киса из «Виктории Победительницы», и Гибби — Ной Манк, и дуэт из «Как зажигать». Честно скажу, интересно смотреть за всеми, тем более почти все актёры, кроме Ноя (который однако справился с новым амплуа отлично), играют собственно, самих себя. Но претензия только к Ною Кроуфорду, как играл он в сериале противного «умного красавчика», так и тут, при этом ему совсем не веришь, он ведёт себя больше как выскочка, который работает на импровизации, а ведь режиссёр всё же хотел его показать как умного стратега. К другому претензий нет, трио женских персонажей просто шикарное, Ной и Крис прекрасно вжились роль. Ну и отдельно про антагониста, Свиделл, Фред Эвануик, честно, иногда видел перед собой не Фреда, а Роуэна Аткинсона, и это явная похвала актёру, сыграл он отлично.
В итоге мы получаем глупую молодёжную комедию, с проседающим сюжетом, в котором множество обидных дыр. Но как это снято! Персонажам веришь, они становятся «ближе» к тебе, неплохой юмор, и яркие моменты, полтора часа для лёгкого просмотра с дочкой/сыном/сестрой/братом — самое то!
7,5 баллов от меня.
Релиз группа: DeadmauvladВсе релизы Фильма Мошенничество на NNM-Club

[Цитировать]



Показать сообщения:    

Текущее время: 07-Дек 19:17

Часовой пояс: UTC + 3


Вы не можете начинать темы
Вы не можете отвечать на сообщения
Вы не можете редактировать свои сообщения
Вы не можете удалять свои сообщения
Вы не можете голосовать в опросах
Вы не можете прикреплять файлы к сообщениям
Вы не можете скачивать файлы

!ВНИМАНИЕ!
Сайт не предоставляет электронные версии произведений, а занимается лишь коллекционированием и каталогизацией ссылок, присылаемых и публикуемых на форуме нашими читателями. Если вы являетесь правообладателем какого-либо представленного материала и не желаете, чтобы ссылка на него находилась в нашем каталоге, свяжитесь с нами, и мы незамедлительно удалим ее. Файлы для обмена на трекере предоставлены пользователями сайта, и администрация не несет ответственности за их содержание. Просьба не заливать файлы, защищенные авторскими правами, а также файлы нелегального содержания!