[ Сегодня идет свободное скачивание без начисления Download ]


Статистика раздачи
Нет
 
   
 
Top  
 
 
-Отец-молодец / Delivery Man (2013) HDRip
«Тебе от 17 до 23? Ты уверен, что это не твой отец?»
-

Год выпуска: 2013
Производство: США | DreamWorks SKG
Жанр: Комедия, Драма
Перевод: Дублированный [iTunes]
Субтитры: Отсутствуют
Дата мировой премьеры: 21 ноября 2013
Дата российской премьеры: 21 ноября 2013, «WDSSPR»
Дата выхода DVD релиза: 25 марта 2014, «Уолт Дисней Компани СНГ»
Режиссер: Кен Скотт
Продюсер: Андре Руле, Рэй Анджелик, Скотт Медник
Актеры: Винс Вон, Крис Прэтт, Коби Смолдерс, Анджей Блюменфельд, Саймон Делани, Бобби Мойнахан, Дэйв Паттен, Адам Чанлер-Берат, Бритт Робертсон, Джек Рейнор
Описание фильма:
Жизнь бруклинского работяги Дэвида Возняка не похожа на праздник: у него кризис среднего возраста, он должен денег подпольному ростовщику, девушка собирается его бросить, а родной отец грозит увольнением с работы. А в довершение всех бед к нему приходит адвокат с известием о том, что в результате ошибки, которую двадцать лет назад совершили в банке спермы, который Дэвид посещал в студенческие годы, он является биологическим отцом 533 детей. И 142 из них обратились в суд с требованием раскрыть имя своего родителя. Вначале Дэвид не знает, что делать в такой ситуации, но постепенно любопытство перевешивает, и он решает — инкогнито — узнать поближе хотя бы некоторых из своих нежданных потомков…

Продолжительность: 01:44:54
Качество видео: HDRip
Видео кодек: Xvid
Аудио кодек: AC3 5.1
Видео: 720x304 (2.37:1), 23.976 fps, XviD build 50 ~1598 kbps avg, 0.304 bit/pixel
Аудио: 48 kHz, AC3 Dolby Digital, 3/2 (L,C,R,l,r) + LFE ch, ~384 kbps
Сэмпл: Скачать

MediaInfo

General
Complete name                  : D:\фильмы\Otetc.Molodec.2013.D.HDRip.avi
Format                         : AVI
Format/Info                    : Audio Video Interleave
File size                      : 1.46 GiB
Duration                       : 1h 44mn
Overall bit rate               : 1 991 Kbps
Writing application            : VirtualDubMod 1.5.10.2 (build 2540/release)
Writing library                : VirtualDubMod build 2540/release
Video
ID                             : 0
Format                         : MPEG-4 Visual
Format profile                 : Advanced Simple@L5
Format settings, BVOP          : Yes
Format settings, QPel          : No
Format settings, GMC           : No warppoints
Format settings, Matrix        : Custom
Codec ID                       : XVID
Codec ID/Hint                  : XviD
Duration                       : 1h 44mn
Bit rate                       : 1 598 Kbps
Width                          : 720 pixels
Height                         : 304 pixels
Display aspect ratio           : 2.35:1
Frame rate                     : 23.976 fps
Color space                    : YUV
Chroma subsampling             : 4:2:0
Bit depth                      : 8 bits
Scan type                      : Progressive
Compression mode               : Lossy
Bits/(Pixel*Frame)             : 0.304
Stream size                    : 1.17 GiB (80%)
Writing library                : XviD 1.2.1 (UTC 2008-12-04)
Audio
ID                             : 1
Format                         : AC-3
Format/Info                    : Audio Coding 3
Mode extension                 : CM (complete main)
Format settings, Endianness    : Big
Codec ID                       : 2000
Duration                       : 1h 44mn
Bit rate mode                  : Constant
Bit rate                       : 384 Kbps
Channel(s)                     : 6 channels
Channel positions              : Front: L C R, Side: L R, LFE
Sampling rate                  : 48.0 KHz
Bit depth                      : 16 bits
Compression mode               : Lossy
Stream size                    : 288 MiB (19%)
Alignment                      : Split accross interleaves
Interleave, duration           : 42 ms (1.00 video frame)
Interleave, preload duration   : 500 ms

Скриншоты:

]
Время раздачи: 10:00 - 24:00

[Цитировать]



Показать сообщения:    

Текущее время: 11-Дек 07:12

Часовой пояс: UTC + 3


Вы не можете начинать темы
Вы не можете отвечать на сообщения
Вы не можете редактировать свои сообщения
Вы не можете удалять свои сообщения
Вы не можете голосовать в опросах
Вы не можете прикреплять файлы к сообщениям
Вы не можете скачивать файлы

!ВНИМАНИЕ!
Сайт не предоставляет электронные версии произведений, а занимается лишь коллекционированием и каталогизацией ссылок, присылаемых и публикуемых на форуме нашими читателями. Если вы являетесь правообладателем какого-либо представленного материала и не желаете, чтобы ссылка на него находилась в нашем каталоге, свяжитесь с нами, и мы незамедлительно удалим ее. Файлы для обмена на трекере предоставлены пользователями сайта, и администрация не несет ответственности за их содержание. Просьба не заливать файлы, защищенные авторскими правами, а также файлы нелегального содержания!