[ Сегодня идет свободное скачивание без начисления Download ]


Статистика раздачи
Нет
 
   
 
Top  
 
 
-Программа защиты принцесс / Princess Protection Program (2009) HDTVRip- Год выпуска: 2009
Производство: Disney Channel, Rainforest Productions See more (USA)
Жанр: драма, комедия, семейный
Продолжительность: 01:28:12
Перевод: Дубляж, Двухголосый закадровый
Вид субтитров: вшитые (отключены по умолчанию)
Язык субтитров: Русский, Английский
Описание фильма:
Когда крошечную страну захватывает диктатор, молодая «Принцесса» Рози, арестована в соответствии с «Программой защиты принцесс». Она сбегает далеко в деревеньку Висконсин, где она должна изучить и обмыслить свою жизнь как нормальный американский подросток. В процессе приспосабливания к новой жизни, Рози меняется...

Режиссер: Эллисон Лидди
Актеры: Деми Ловато, Селена Гомес, Николас Браун, Молли Хэйгэн, Джонни Рэй, Джейми Чунг, Саманта Дроук, Роберт Адамсон, Кевин Шмидт, Дейл Дикки
Роли дублировали: Лина Иванова, Вероника Саркисова, Александр Хошабаев, Марианна Шульц, Илья Хвостиков-Рейтинги:
Дата мировой премьеры: 20 мая 2009-Релиз от: HDTVshek &
Качество видео: HDTVRip
Видеокодек: MPEG-4 AVC/H.264
Битрейт видео: ~ 4481 Kbps
Размер кадра: 1280x720
Аудио:
1. Русский: 48.0 KHz, 6 ch, AC-3, 384 Kbps (дубляж)
2. Русский: 48.0 KHz, 6 ch, AC-3, 384 Kbps (двухгоголосый)
3. Английский: 48.0 KHz, 6 ch, AC-3, 384 Kbps

Примечание: Дубляж под данный релиз сихронизирован мной.

MediaInfo:

Общее
Уникальный идентификатор : 195407339214258479686737558334256873650 (0x930215A7FD7F98459850BDBABFDA80B2)
Полное имя : \Princess.Protection.Program.2009.HDTVRip.720p.mkv
Формат : Matroska
Версия формата : Version 2
Размер файла : 3,48 Гбайт
Продолжительность : 1 ч. 29 м.
Общий поток : 5568 Кбит/сек
Дата кодирования : UTC 2014-03-10 09:46:35
Программа кодирования : mkvmerge v5.8.0 ('No Sleep / Pillow') built on Sep 2 2012 15:37:04
Библиотека кодирования : libebml v1.2.3 + libmatroska v1.3.0
Видео
Идентификатор : 1
Формат : AVC
Формат/Информация : Advanced Video Codec
Профиль формата : High@L4.1
Параметр CABAC формата : Да
Параметр ReFrames формата : 4 кадра
Идентификатор кодека : V_MPEG4/ISO/AVC
Продолжительность : 1 ч. 29 м.
Битрейт : 4481 Кбит/сек
Ширина : 1280 пикселей
Высота : 720 пикселей
Соотношение сторон : 16:9
Режим частоты кадров : Постоянный
Частота кадров : 23,976 кадра/сек
Цветовое пространство : YUV
Субдискретизация насыщенности : 4:2:0
Битовая глубина : 8 бит
Тип развёртки : Прогрессивная
Бит/(Пиксели*Кадры) : 0.203
Размер потока : 2,69 Гбайт (77%)
Библиотека кодирования : x264 core 75 r1259 dd026f2
Настройки программы : cabac=1 / ref=4 / deblock=1:0:0 / analyse=0x3:0x113 / me=umh / subme=9 / psy=1 / psy_rd=1.0:0.0 / mixed_ref=1 / me_range=24 / chroma_me=1 / trellis=2 / 8x8dct=1 / cqm=0 / deadzone=21,11 / chroma_qp_offset=-2 / threads=6 / nr=0 / decimate=1 / mbaff=0 / bframes=3 / b_pyramid=0 / b_adapt=2 / b_bias=0 / direct=3 / wpredb=1 / keyint=250 / keyint_min=25 / scenecut=40 / rc_lookahead=0 / rc=2pass / mbtree=0 / bitrate=4481 / ratetol=1.0 / qcomp=0.60 / qpmin=10 / qpmax=51 / qpstep=4 / cplxblur=20.0 / qblur=0.5 / vbv_maxrate=50000 / vbv_bufsize=50000 / ip_ratio=1.40 / pb_ratio=1.30 / aq=1:1.00
Язык : English
Default : Да
Forced : Нет
Аудио #1
Идентификатор : 2
Формат : AC-3
Формат/Информация : Audio Coding 3
Расширение режима : CM (complete main)
Параметр Endianness формата : Big
Идентификатор кодека : A_AC3
Продолжительность : 1 ч. 29 м.
Вид битрейта : Постоянный
Битрейт : 384 Кбит/сек
Каналы : 6 каналов
Расположение каналов : Front: L C R, Side: L R, LFE
Частота : 48,0 КГц
Битовая глубина : 16 бит
Метод сжатия : С потерями
Размер потока : 245 Мбайт (7%)
Заголовок : Дубляж
Язык : Russian
Default : Нет
Forced : Нет
Аудио #2
Идентификатор : 3
Формат : AC-3
Формат/Информация : Audio Coding 3
Расширение режима : CM (complete main)
Параметр Endianness формата : Big
Идентификатор кодека : A_AC3
Продолжительность : 1 ч. 29 м.
Вид битрейта : Постоянный
Битрейт : 384 Кбит/сек
Каналы : 6 каналов
Расположение каналов : Front: L C R, Side: L R, LFE
Частота : 48,0 КГц
Битовая глубина : 16 бит
Метод сжатия : С потерями
Размер потока : 245 Мбайт (7%)
Заголовок : DVO
Язык : Russian
Default : Нет
Forced : Нет
Аудио #3
Идентификатор : 4
Формат : AC-3
Формат/Информация : Audio Coding 3
Расширение режима : CM (complete main)
Параметр Endianness формата : Big
Идентификатор кодека : A_AC3
Продолжительность : 1 ч. 29 м.
Вид битрейта : Постоянный
Битрейт : 384 Кбит/сек
Каналы : 6 каналов
Расположение каналов : Front: L C R, Side: L R, LFE
Частота : 48,0 КГц
Битовая глубина : 16 бит
Метод сжатия : С потерями
Размер потока : 245 Мбайт (7%)
Заголовок : Оригинал
Язык : English
Default : Нет
Forced : Нет
Текст #1
Идентификатор : 5
Формат : UTF-8
Идентификатор кодека : S_TEXT/UTF8
Идентификатор кодека/Информация : UTF-8 Plain Text
Язык : Russian
Default : Нет
Forced : Нет
Текст #2
Идентификатор : 6
Формат : UTF-8
Идентификатор кодека : S_TEXT/UTF8
Идентификатор кодека/Информация : UTF-8 Plain Text
Язык : English
Default : Нет
Forced : Нет
Меню
00:00:00.000 : ru:00:00:00.000000000
00:05:00.000 : :00:05:00.000000000
00:10:00.000 : :00:10:00.000000000
00:15:00.000 : :00:15:00.000000000
00:20:00.000 : :00:20:00.000000000
00:25:00.000 : :00:25:00.000000000
00:30:00.000 : :00:30:00.000000000
00:35:00.000 : :00:35:00.000000000
00:40:00.000 : :00:40:00.000000000
00:45:00.000 : :00:45:00.000000000
00:50:00.000 : :00:50:00.000000000
00:55:00.000 : :00:55:00.000000000
01:00:00.000 : :01:00:00.000000000
01:05:00.000 : :01:05:00.000000000
01:10:00.000 : :01:10:00.000000000
01:15:00.000 : :01:15:00.000000000
01:20:00.000 : :01:20:00.000000000
01:25:00.000 : :01:25:00.000000000
Chelsea Holbs

А в тебе живет принцесса?
Дисней не подвел. Принцессы еще не перевелись! Еще до просмотра этого фильма мне очень нравилась Селена Гомес. А теперь и её лучшая подруга Деми Ловато.
Самое удачное в «Программе защиты принцесс»:
1. Отец и дочь. У них настоящая дружба.
2. Наряды. Симпатичные платья, особенно платье Картер в самом конце.
3. Картер и Рози. Две девчонки совершенно разные по характеру, но все равно они стали подругами на экране. А фраза «- Я тебя ненавижу!», не так воспринятая принцессой, больше всего поразила меня .
4. Музыка. Удачно подобрали.
После «Волшебники из Вейверли Плейс» и «Еще одна история о Золушке», я знала что ждать от Селены. Она очень реалистично «воюет» с этими «принцессами», но потом сама становится принцессой. Настоящей.
А вот Деми я в первый раз увидела в фильме. Она очень эмоционально сыграла свою роль. Актрисы очень удачно подобраны. Самой запоминающейся фразой стала «Она не знает что такое гамбургер, но смогла заказать его на 6 языках!».
А уж о злодейке Челси просто нет слов. Капризная…А как она подставила Рози…
В целом, фильм очень понравился. Даже смогу его еще раз посмотреть!
А так:
10 из 10
================================
bonvoyage
Дружба всё, что есть на белом свете…
Фильм просто супер!
Впечатляет понимание настоящей американки к девушки из провинции. Конечно у них были разногласия, но всё утихомирилась и они стали настоящими лучшими подругами.
Музыкальное сопровождение фильма даёт огромные плюс- все песни невероятны!
Актёры сыграли просто отлично. Очень нравятся Гомез и Ловата, сыграли просто неповторима- все эмоции, всё было передано на все 100%.
Приятного просмотра.
10 из 10Скриншоты:


[Цитировать]



Показать сообщения:    

Текущее время: 08-Дек 17:15

Часовой пояс: UTC + 3


Вы не можете начинать темы
Вы не можете отвечать на сообщения
Вы не можете редактировать свои сообщения
Вы не можете удалять свои сообщения
Вы не можете голосовать в опросах
Вы не можете прикреплять файлы к сообщениям
Вы не можете скачивать файлы

!ВНИМАНИЕ!
Сайт не предоставляет электронные версии произведений, а занимается лишь коллекционированием и каталогизацией ссылок, присылаемых и публикуемых на форуме нашими читателями. Если вы являетесь правообладателем какого-либо представленного материала и не желаете, чтобы ссылка на него находилась в нашем каталоге, свяжитесь с нами, и мы незамедлительно удалим ее. Файлы для обмена на трекере предоставлены пользователями сайта, и администрация не несет ответственности за их содержание. Просьба не заливать файлы, защищенные авторскими правами, а также файлы нелегального содержания!