[ Сегодня идет свободное скачивание без начисления Download ]


Статистика раздачи
Нет
 
   
 
Top  
 
 
-Сенсация / Scoop (2006) BDRip [1080p]
«Идеальный мужчина. Идеальная история. Идеальное убийство»
- Год выпуска: 2006
Выпущено: Великобритания, США | BBC Films, Ingenious Film Partners, Jelly Roll Productions, Phoenix Wiley
Жанр: Комедия, Детектив
Описание фильма:
Погибшего британского журналиста Джо Стромбела оплакивают его друзья и коллеги. Но даже в чистилище Джо не покидают мысли о работе, ведь он только что узнал сенсационную новость об убийце, орудующем в Лондоне. Как же ему теперь сделать работу, которая требует столько беготни? С помощью вполне живой Сондры Прански. Сондра — американская студентка, изучающая журналистику, приезжает к друзьям в Лондон. Во время выступления американского мага Сида Вотермана Сондра видит и слышит Джо. Он рассказывает ей о сенсационной новости, которая станет величайшим репортажем в её жизни, убеждая отправиться на поиски. Сондра бросается в погоню за сенсацией…
Режиссер: Вуди Аллен
Актеры: Скарлетт Йоханссон, Хью Джекман, Ромола Гарай, Иэн МакШейн, Кевин МакНэлли, Вуди Аллен, Мэтт Дэй, Энтони Хэд, Джим Данк, Роберт Бафёрст, Джофф Белл, Кристофер Фулфорд, Найджел Линдсэй, Фенелла Вулгар, Пит Мастин, Дорин Мэнтл, Дэвид Шнайдер, Мира Сайал, Робин Керр, Ричард Стирлинг, Кэролин Бэкхаус, Гуо Тоа, Сэм Френд, Марк Хип, Сьюзи Кьюер, Джоди Халс, Элизабет Беррингтон, Руперт Фрейзер, Кристофер Годвин, Джулиан Гловер, Паула Уилкокс, Джон Стэндинг, Санджив Бхаскар, Джон Лайт, Тина Рат, Кэролайн Блэкистон, Ричард Джонсон, Уильям Хойланд, Мойя Брэди, Рози Кавальеро, Энтони О’Доннелл, Чарльз Дэнс, Линда Барон
Продолжительность: 01:35:33
Качество видео: BDRip [1080p]
Перевод: Профессиональный (многоголосый, закадровый), Авторский (Андрей Гаврилов)
Язык субтитров: Русские, английские
Вид субтитров: Вшитые отключаемые

Дата мировой премьеры: 28 июля 2006
Дата российской премьеры: 2 ноября 2006, «Централ Партнершип»
Дата выхода DVD релиза: 30 ноября 2006, «CP-Digital»
Видео кодек: MPEG-4 AVC/H.264
Аудио кодек: DTS, AC3
Видео: 1920x1080 (16:9), 23, 976 fps, 11.1 Mbps, 0.224 bit/ pixel
Аудио №1: 48 kHz, DTS, 5.1 ch, 755 kbps | MVO
Аудио №2: 48 kHz, DTS, 5.1 ch, 1509 kbps | AVO
Аудио №3: 48 kHz, AC3, 5.1 ch, 640 kbps | ENG
Сэмпл: Ссылка

MediaInfo

General
Unique ID                      : 253052780240481504726086029149984467380 (0xBE603154A090305DB9D4BC415EBF29B4)
Complete name                  : D:\фильмы\Sensacija.BDRip.1080p.mkv
Format                         : Matroska
Format version                 : Version 4 / Version 2
File size                      : 9.56 GiB
Duration                       : 1h 35mn
Overall bit rate               : 14.3 Mbps
Movie name                     : BDRip
Encoded date                   : UTC 2014-03-03 03:38:32
Writing application            : mkvmerge v6.7.0 ('Back to the Ground') 64bit built on Jan  8 2014 15:10:52
Writing library                : libebml v1.3.0 + libmatroska v1.4.1
Video
ID                             : 1
Format                         : AVC
Format/Info                    : Advanced Video Codec
Format profile                 : [url=mailto:[email protected]][email protected][/url]
Format settings, CABAC         : Yes
Format settings, ReFrames      : 4 frames
Codec ID                       : V_MPEG4/ISO/AVC
Duration                       : 1h 35mn
Bit rate                       : 11.1 Mbps
Width                          : 1 920 pixels
Height                         : 1 080 pixels
Display aspect ratio           : 16:9
Frame rate mode                : Constant
Frame rate                     : 23.976 fps
Color space                    : YUV
Chroma subsampling             : 4:2:0
Bit depth                      : 8 bits
Scan type                      : Progressive
Bits/(Pixel*Frame)             : 0.224
Stream size                    : 7.44 GiB (78%)
Writing library                : x264 core 138 r2358 9e941d1
Encoding settings              : cabac=1 / ref=4 / deblock=1:-1:-1 / analyse=0x3:0x113 / me=umh / subme=10 / psy=1 / psy_rd=1.00:0.15 / mixed_ref=1 / me_range=24 / chroma_me=1 / trellis=2 / 8x8dct=1 / cqm=0 / deadzone=21,11 / fast_pskip=0 / chroma_qp_offset=-3 / threads=6 / lookahead_threads=1 / sliced_threads=0 / nr=0 / decimate=1 / interlaced=0 / bluray_compat=0 / constrained_intra=0 / bframes=6 / b_pyramid=2 / b_adapt=2 / b_bias=0 / direct=1 / weightb=1 / open_gop=0 / weightp=2 / keyint=230 / keyint_min=23 / scenecut=40 / intra_refresh=0 / rc_lookahead=40 / rc=crf / mbtree=0 / crf=19.4 / qcomp=0.60 / qpmin=0 / qpmax=69 / qpstep=4 / vbv_maxrate=50000 / vbv_bufsize=62500 / crf_max=0.0 / nal_hrd=none / ip_ratio=1.40 / pb_ratio=1.30 / aq=1:1.00
Language                       : English
Default                        : Yes
Forced                         : No
Audio #1
ID                             : 2
Format                         : DTS
Format/Info                    : Digital Theater Systems
Mode                           : 16
Format settings, Endianness    : Big
Codec ID                       : A_DTS
Duration                       : 1h 35mn
Bit rate mode                  : Constant
Bit rate                       : 755 Kbps
Channel(s)                     : 6 channels
Channel positions              : Front: L C R, Side: L R, LFE
Sampling rate                  : 48.0 KHz
Bit depth                      : 16 bits
Compression mode               : Lossy
Stream size                    : 516 MiB (5%)
Title                          : MVO
Language                       : Russian
Default                        : Yes
Forced                         : No
Audio #2
ID                             : 3
Format                         : DTS
Format/Info                    : Digital Theater Systems
Mode                           : 16
Format settings, Endianness    : Big
Codec ID                       : A_DTS
Duration                       : 1h 35mn
Bit rate mode                  : Constant
Bit rate                       : 1 509 Kbps
Channel(s)                     : 6 channels
Channel positions              : Front: L C R, Side: L R, LFE
Sampling rate                  : 48.0 KHz
Bit depth                      : 16 bits
Compression mode               : Lossy
Stream size                    : 1.01 GiB (11%)
Title                          : AVO (Андрей Гаврилов)
Language                       : Russian
Default                        : No
Forced                         : No
Audio #3
ID                             : 4
Format                         : AC-3
Format/Info                    : Audio Coding 3
Mode extension                 : CM (complete main)
Format settings, Endianness    : Big
Codec ID                       : A_AC3
Duration                       : 1h 35mn
Bit rate mode                  : Constant
Bit rate                       : 640 Kbps
Channel(s)                     : 6 channels
Channel positions              : Front: L C R, Side: L R, LFE
Sampling rate                  : 48.0 KHz
Bit depth                      : 16 bits
Compression mode               : Lossy
Stream size                    : 437 MiB (4%)
Title                          : Original
Language                       : English
Default                        : No
Forced                         : No
Text #1
ID                             : 5
Format                         : UTF-8
Codec ID                       : S_TEXT/UTF8
Codec ID/Info                  : UTF-8 Plain Text
Title                          : русский
Language                       : Russian
Default                        : No
Forced                         : No
Text #2
ID                             : 6
Format                         : UTF-8
Codec ID                       : S_TEXT/UTF8
Codec ID/Info                  : UTF-8 Plain Text
Title                          : английский
Default                        : No
Forced                         : No
Menu
00:00:00.000                   : :Chapter 01
00:09:07.838                   : :Chapter 02
00:20:41.531                   : :Chapter 03
00:29:39.777                   : :Chapter 04
00:36:29.103                   : :Chapter 05
00:44:04.224                   : :Chapter 06
00:48:54.431                   : :Chapter 07
00:55:28.408                   : :Chapter 08
01:04:45.339                   : :Chapter 09
01:15:31.318                   : :Chapter 10
01:24:52.086                   : :Chapter 11
01:32:32.213                   : :Chapter 12
01:35:09.370                   : :Chapter 13
Скриншоты:

[Цитировать]



Показать сообщения:    

Текущее время: 04-Дек 13:19

Часовой пояс: UTC + 3


Вы не можете начинать темы
Вы не можете отвечать на сообщения
Вы не можете редактировать свои сообщения
Вы не можете удалять свои сообщения
Вы не можете голосовать в опросах
Вы не можете прикреплять файлы к сообщениям
Вы не можете скачивать файлы

!ВНИМАНИЕ!
Сайт не предоставляет электронные версии произведений, а занимается лишь коллекционированием и каталогизацией ссылок, присылаемых и публикуемых на форуме нашими читателями. Если вы являетесь правообладателем какого-либо представленного материала и не желаете, чтобы ссылка на него находилась в нашем каталоге, свяжитесь с нами, и мы незамедлительно удалим ее. Файлы для обмена на трекере предоставлены пользователями сайта, и администрация не несет ответственности за их содержание. Просьба не заливать файлы, защищенные авторскими правами, а также файлы нелегального содержания!