[ Сегодня идет свободное скачивание без начисления Download ]


Статистика раздачи
Нет
 
   
 
Top  
 
 
-Я, снова я и мама / Les garcons et Guillaume, a table! (2013) BDRip
«Мужчинами не рождаются»
- Год выпуска: 2013
Производство: Франция, Бельгия
Жанр: Комедия
Перевод: Многоголосый закадровый, профессиональный [лицензия]
Субтитры: Вшитые отключаемые
Язык субтитров: Русские
Дата мировой премьеры: 20 мая 2013
Дата российской премьеры: 19 декабря 2013, «Премиум Фильм»
Дата выхода DVD релиза: 27 февраля 2014, «CP Дистрибуция»
Дата выхода Blu-Ray релиза: 27 февраля 2014, «CP Дистрибуция»
Режиссер: Гийом Гальенн
Продюсер: Сирил Кольбо-Жюстен, Жан-Батист Дюпон, Дэвид Джордано
Актеры: Гийом Гальенн, Андре Маркон, Франсуаза Фабиан, Нану Гарсия, Дайан Крюгер, Реда Катеб, Гёц Отто, Бриджитт Катийон, Кэрол Бреннер, Чарли Энсон ...
Описание фильма:
Гийом настолько боготворит свою мамочку, что всячески подражает ее манерам и поведению. Странные интересы, необъяснимые действия заставляют окружающих думать, что все не так просто в жизни молодого человека.

Продолжительность: 01:26:32
Качество видео: BDRip [1080p]
Видеокодек: MPEG-4 AVC/H.264
Битрейт видео: ~ 9888 Кбит/сек
Размер кадра: 1920x800
Аудио #1: Русский, DTS, 6 ch, 1509 kbps
Аудио #2: Французский, DTS, 6 ch, 1509 kbps
Дополнительно: Сохранены оригинальные чаптеры как на Blu-Ray

MediaInfo:

General
Unique ID                                : 240066109475512180812719552126962198508 (0xB49B0D06F0985DF8BE8DBE660EA567EC)
Complete name                            : E:\Фильмы\Я, снова я и мама.2013.BDRip.1080p.mkv
Format                                   : Matroska
Format version                           : Version 4 / Version 2
File size                                : 7.80 GiB
Duration                                 : 1h 26mn
Overall bit rate                         : 12.9 Mbps
Movie name                               : Release Group [SPAM]
Encoded date                             : UTC 2014-03-09 14:45:02
Writing application                      : mkvmerge v6.8.0 ('Theme for Great Cities') 64bit built on Mar  2 2014 21:34:26
Writing library                          : libebml v1.3.0 + libmatroska v1.4.1
Video
ID                                       : 1
Format                                   : AVC
Format/Info                              : Advanced Video Codec
Format profile                           : [url=mailto:High@L4.1]High@L4.1[/url]
Format settings, CABAC                   : Yes
Format settings, ReFrames                : 5 frames
Codec ID                                 : V_MPEG4/ISO/AVC
Duration                                 : 1h 26mn
Bit rate                                 : 9 888 Kbps
Width                                    : 1 920 pixels
Height                                   : 800 pixels
Display aspect ratio                     : 2.40:1
Frame rate mode                          : Constant
Frame rate                               : 24.000 fps
Color space                              : YUV
Chroma subsampling                       : 4:2:0
Bit depth                                : 8 bits
Scan type                                : Progressive
Bits/(Pixel*Frame)                       : 0.268
Stream size                              : 5.82 GiB (75%)
Title                                    : Release Group [SPAM]
Writing library                          : x264 core 140 r2377 1ca7bb9
Encoding settings                        : cabac=1 / ref=5 / deblock=1:-3:-3 / analyse=0x3:0x113 / me=umh / subme=11 / psy=1 / psy_rd=0.97:0.20 / mixed_ref=1 / me_range=64 / chroma_me=1 / trellis=2 / 8x8dct=1 / cqm=0 / deadzone=6,6 / fast_pskip=0 / chroma_qp_offset=-3 / threads=24 / lookahead_threads=2 / sliced_threads=0 / nr=0 / decimate=0 / interlaced=0 / bluray_compat=0 / constrained_intra=0 / bframes=5 / b_pyramid=2 / b_adapt=2 / b_bias=0 / direct=3 / weightb=1 / open_gop=1 / weightp=2 / keyint=240 / keyint_min=22 / scenecut=40 / intra_refresh=0 / rc_lookahead=240 / rc=2pass / mbtree=1 / bitrate=9888 / ratetol=1.0 / qcomp=0.60 / qpmin=0 / qpmax=69 / qpstep=4 / cplxblur=20.0 / qblur=0.5 / vbv_maxrate=50000 / vbv_bufsize=50000 / nal_hrd=none / filler=0 / ip_ratio=1.40 / aq=2:0.90
Language                                 : French
Default                                  : Yes
Forced                                   : Yes
Color primaries                          : BT.709
Transfer characteristics                 : BT.709
Matrix coefficients                      : BT.709
Audio #1
ID                                       : 2
Format                                   : DTS
Format/Info                              : Digital Theater Systems
Mode                                     : 16
Format settings, Endianness              : Big
Codec ID                                 : A_DTS
Duration                                 : 1h 26mn
Bit rate mode                            : Constant
Bit rate                                 : 1 509 Kbps
Channel(s)                               : 6 channels
Channel positions                        : Front: L C R, Side: L R, LFE
Sampling rate                            : 48.0 KHz
Bit depth                                : 16 bits
Compression mode                         : Lossy
Stream size                              : 934 MiB (12%)
Title                                    : Лицензия
Language                                 : Russian
Default                                  : Yes
Forced                                   : Yes
Audio #2
ID                                       : 3
Format                                   : DTS
Format/Info                              : Digital Theater Systems
Mode                                     : 16
Format settings, Endianness              : Big
Codec ID                                 : A_DTS
Duration                                 : 1h 26mn
Bit rate mode                            : Constant
Bit rate                                 : 1 509 Kbps
Channel(s)                               : 6 channels
Channel positions                        : Front: L C R, Side: L R, LFE
Sampling rate                            : 48.0 KHz
Bit depth                                : 16 bits
Compression mode                         : Lossy
Stream size                              : 934 MiB (12%)
Language                                 : French
Default                                  : No
Forced                                   : No
Text
ID                                       : 4
Format                                   : UTF-8
Codec ID                                 : S_TEXT/UTF8
Codec ID/Info                            : UTF-8 Plain Text
Language                                 : Russian
Default                                  : No
Forced                                   : No
Menu
00:00:00.000                             : fr:Chapter 01
00:05:14.375                             : fr:Chapter 02
00:12:47.375                             : fr:Chapter 03
00:19:31.833                             : fr:Chapter 04
00:28:21.167                             : fr:Chapter 05
00:39:04.833                             : fr:Chapter 06
00:45:44.625                             : fr:Chapter 07
00:52:22.542                             : fr:Chapter 08
01:01:35.458                             : fr:Chapter 09
01:08:47.417                             : fr:Chapter 10
01:14:03.458                             : fr:Chapter 11
01:19:42.208                             : fr:Chapter 12
Скриншоты:

[Цитировать]



Показать сообщения:    

Текущее время: 23-Мар 08:24

Часовой пояс: UTC + 6


Вы не можете начинать темы
Вы не можете отвечать на сообщения
Вы не можете редактировать свои сообщения
Вы не можете удалять свои сообщения
Вы не можете голосовать в опросах
Вы не можете прикреплять файлы к сообщениям
Вы не можете скачивать файлы

!ВНИМАНИЕ!
Сайт не предоставляет электронные версии произведений, а занимается лишь коллекционированием и каталогизацией ссылок, присылаемых и публикуемых на форуме нашими читателями. Если вы являетесь правообладателем какого-либо представленного материала и не желаете, чтобы ссылка на него находилась в нашем каталоге, свяжитесь с нами, и мы незамедлительно удалим ее. Файлы для обмена на трекере предоставлены пользователями сайта, и администрация не несет ответственности за их содержание. Просьба не заливать файлы, защищенные авторскими правами, а также файлы нелегального содержания!