[ Сегодня идет свободное скачивание без начисления Download ]


Статистика раздачи
Нет
 
   
 
Top  
 
 
-Мотель / The Bag Man (2014) BDRip«The cat's in the bag»- Год выпуска: 2014
Производство: США, Cinedigm, Red Granite Pictures, TinRes Entertainment
Жанр: Триллер, Криминал
Перевод: Одноголосый закадровый, любительский
Озвучка / Автор перевода: qwerty
Субтитры: Вшитые отключаемые
Язык субтитров: Русские [Janetta], английские
Режиссер: Дэвид Гровик
Продюсер: Питер Грейвз, Уоррен Остергард, Дэвид Дилиберто
Актеры: Роберт Де Ниро, Джон Кьюсак, Ребекка Да Коста, Криспин Гловер, Доминик Пёрселл, Стикки Фингаз, Мартин Клебба, Дэвид Шамбрис, Чезз Менендес, Йен Маклафлин
Описание фильма:
Наемный убийца Джек Стаффорд получает несложное задание: приехать в заштатный мотель в 300 милях от Питтсбурга, получить сумку с таинственным содержимым и оставаться в номере, пока за грузом не приедут. Условие одно: ни при каких обстоятельствах не заглядывать внутрь сумки. Но поручение оказывается простым лишь на первый взгляд. Вскоре киллер понимает, что за доверенным ему предметом охотятся коррумпированные агенты ФБР, продажные полицейские, провинциальные гангстеры и кровожадный карлик-цыган из Сербии. И каждый хочет всадить в Джека пулю. Число жертв растет на глазах, и дожить до рассвета смогут далеко не все постояльцы мотеля.

Продолжительность: 01:48:46
Качество видео: ВDRip [720p]
Видеокодек: MPEG-4 AVC/H.264
Битрейт видео: 4925 kb/s
Размер кадра: 1280x530
Аудио #1: Русский, AC3, 6 ch, 384 kbps
Аудио #2: Английский, DTS, 6 ch, 1509 kbps

MediaInfo:

General
Unique ID                                : 197803619780762709474061738816169142557 (0x94CF9768E6617AD2BBBDD6C0A8E5691D)
Complete name                            : E:\Фильмы\Мотель.2014.BDRip.720p.mkv
Format                                   : Matroska
Format version                           : Version 4 / Version 2
File size                                : 5.29 GiB
Duration                                 : 1h 48mn
Overall bit rate                         : 6 956 Kbps
Movie name                               : Release Group [SPAM]
Encoded date                             : UTC 2014-03-09 09:16:11
Writing application                      : mkvmerge v6.8.0 ('Theme for Great Cities') 64bit built on Mar  2 2014 21:34:26
Writing library                          : libebml v1.3.0 + libmatroska v1.4.1
Video
ID                                       : 1
Format                                   : AVC
Format/Info                              : Advanced Video Codec
Format profile                           : [url=mailto:High@L4.1]High@L4.1[/url]
Format settings, CABAC                   : Yes
Format settings, ReFrames                : 12 frames
Codec ID                                 : V_MPEG4/ISO/AVC
Duration                                 : 1h 48mn
Bit rate                                 : 4 925 Kbps
Width                                    : 1 280 pixels
Height                                   : 530 pixels
Display aspect ratio                     : 2.40:1
Frame rate mode                          : Constant
Frame rate                               : 23.976 fps
Color space                              : YUV
Chroma subsampling                       : 4:2:0
Bit depth                                : 8 bits
Scan type                                : Progressive
Bits/(Pixel*Frame)                       : 0.303
Stream size                              : 3.74 GiB (71%)
Title                                    : Release Group [SPAM]
Language                                 : English
Default                                  : Yes
Forced                                   : No
Audio #1
ID                                       : 2
Format                                   : AC-3
Format/Info                              : Audio Coding 3
Mode extension                           : CM (complete main)
Format settings, Endianness              : Big
Codec ID                                 : A_AC3
Duration                                 : 1h 48mn
Bit rate mode                            : Constant
Bit rate                                 : 384 Kbps
Channel(s)                               : 6 channels
Channel positions                        : Front: L C R, Side: L R, LFE
Sampling rate                            : 48.0 KHz
Bit depth                                : 16 bits
Compression mode                         : Lossy
Stream size                              : 299 MiB (6%)
Title                                    : qwerty
Language                                 : Russian
Default                                  : Yes
Forced                                   : Yes
Audio #2
ID                                       : 3
Format                                   : DTS
Format/Info                              : Digital Theater Systems
Mode                                     : 16
Format settings, Endianness              : Big
Codec ID                                 : A_DTS
Duration                                 : 1h 48mn
Bit rate mode                            : Constant
Bit rate                                 : 1 509 Kbps
Channel(s)                               : 6 channels
Channel positions                        : Front: L C R, Side: L R, LFE
Sampling rate                            : 48.0 KHz
Bit depth                                : 24 bits
Compression mode                         : Lossy
Stream size                              : 1.15 GiB (22%)
Language                                 : English
Default                                  : No
Forced                                   : No
Text #1
ID                                       : 4
Format                                   : UTF-8
Codec ID                                 : S_TEXT/UTF8
Codec ID/Info                            : UTF-8 Plain Text
Title                                    : Janetta
Language                                 : Russian
Default                                  : No
Forced                                   : No
Text #2
ID                                       : 5
Format                                   : UTF-8
Codec ID                                 : S_TEXT/UTF8
Codec ID/Info                            : UTF-8 Plain Text
Language                                 : English
Default                                  : No
Forced                                   : No
Menu
00:00:00.000                             : en:00:00:00.000
00:05:34.501                             : en:00:05:34.501
00:10:00.850                             : en:00:10:00.850
00:16:30.156                             : en:00:16:30.156
00:21:09.643                             : en:00:21:09.643
00:26:34.301                             : en:00:26:34.301
00:31:43.318                             : en:00:31:43.318
00:37:17.902                             : en:00:37:17.902
00:42:09.318                             : en:00:42:09.318
00:46:11.268                             : en:00:46:11.268
00:52:23.599                             : en:00:52:23.599
00:57:02.044                             : en:00:57:02.044
01:02:28.453                             : en:01:02:28.453
01:07:49.482                             : en:01:07:49.482
01:12:37.061                             : en:01:12:37.061
01:16:46.727                             : en:01:16:46.727
01:24:15.676                             : en:01:24:15.676
01:30:44.105                             : en:01:30:44.105
01:36:37.083                             : en:01:36:37.083
01:40:53.965                             : en:01:40:53.965
01:42:57.713                             : en:01:42:57.713
Скриншоты:

[Цитировать]



Показать сообщения:    

Текущее время: 10-Дек 17:45

Часовой пояс: UTC + 3


Вы не можете начинать темы
Вы не можете отвечать на сообщения
Вы не можете редактировать свои сообщения
Вы не можете удалять свои сообщения
Вы не можете голосовать в опросах
Вы не можете прикреплять файлы к сообщениям
Вы не можете скачивать файлы

!ВНИМАНИЕ!
Сайт не предоставляет электронные версии произведений, а занимается лишь коллекционированием и каталогизацией ссылок, присылаемых и публикуемых на форуме нашими читателями. Если вы являетесь правообладателем какого-либо представленного материала и не желаете, чтобы ссылка на него находилась в нашем каталоге, свяжитесь с нами, и мы незамедлительно удалим ее. Файлы для обмена на трекере предоставлены пользователями сайта, и администрация не несет ответственности за их содержание. Просьба не заливать файлы, защищенные авторскими правами, а также файлы нелегального содержания!