[ Сегодня идет свободное скачивание без начисления Download ]


Статистика раздачи
Нет
 
   
 
Top  
 
 
-Голодные игры: И вспыхнет пламя / The Hunger Games: Catching Fire (2013) BDRip [720p] [IMAX]- Год выпуска: 2013
Производство: США
Жанр: Фантастика, Боевик, Приключения
Перевод: Дублированный
Субтитры: Вшитые отключаемые
Язык субтитров: Русский, Английский
Режиссер: Френсис Лоуренс
Продюсер: Сьюзен Коллинз, Джозеф Дрэйк, Нина Джейкобсон
Актеры: Дженнифер Лоуренс, Джош Хатчерсон, Сэм Клафлин, Джена Мэлоун, Вуди Харрельсон, Элизабет Бэнкс, Лиам Хемсворт, Дональд Сазерленд, Филип Сеймур Хоффман, Стэнли Туччи
Описание фильма:
Сумев выжить на безжалостных Голодных играх, Китнисс Эвердин и Пит Мелларк возвращаются домой. Но теперь они в еще большей опасности, так как своим отказом играть по правилам на Арене бросили вызов Капитолию. По традиции следующие, юбилейные, Голодные игры должны стать особенными, и в этот раз в них участвуют только победители прошлых лет. Китнисс и Пит вынуждены вновь выйти на Арену, где будут соперничать с сильнейшими. Правила игры меняются. Арена еще опасней, масштаб еще больше, ставки еще выше!-
Дата мировой премьеры: 11 ноября 2013
Дата российской премьеры: 21 ноября 2013, «Вольга»
Дата выхода DVD релиза: 24 апреля 2014, «Вольга»-Релиз от:
Продолжительность: 02:26:15
Качество видео: BDRip (chp@CHD)
Контейнер: MKV
Видео: 1280x720p / 23,976 fps / 16:9 / High Profile 4.1, H.264, ~ 4746 Kbps
Аудио:
1. Русский: AC-3 5.1 / 48 kHz / 640 kbps / 16-bit (DUB -> BD RUS)
2. Английский: AC-3 5.1 / 48 kHz / 640 kbps / 16-bit

MediaInfo:

Общее
Уникальный идентификатор : 202251731018414209981096735760298601668 (0x98284439D1BA0DD49D563789F680ECC4)
Полное имя :\The.Hunger.Games.Catching.Fire.2013.BDRip.NNM-CLUB.mkv
Формат : Matroska
Версия формата : Version 2
Размер файла : 6,16 Гбайт
Продолжительность : 2 ч. 26 м.
Общий поток : 6027 Кбит/сек
Название фильма : The.Hunger.Games.Catching.Fire.2013.BDRip.NNM-CLUB
Дата кодирования : UTC 2014-03-09 12:09:51
Программа кодирования : mkvmerge v5.8.0 ('No Sleep / Pillow') built on Sep 2 2012 15:37:04
Библиотека кодирования : libebml v1.2.3 + libmatroska v1.3.0
Видео
Идентификатор : 1
Формат : AVC
Формат/Информация : Advanced Video Codec
Профиль формата : High@L4.1
Параметр CABAC формата : Да
Параметр ReFrames формата : 8 кадров
Идентификатор кодека : V_MPEG4/ISO/AVC
Продолжительность : 2 ч. 26 м.
Битрейт : 4746 Кбит/сек
Ширина : 1280 пикселей
Высота : 720 пикселей
Соотношение сторон : 16:9
Режим частоты кадров : Постоянный
Частота кадров : 23,976 кадра/сек
Цветовое пространство : YUV
Субдискретизация насыщенности : 4:2:0
Битовая глубина : 8 бит
Тип развёртки : Прогрессивная
Бит/(Пиксели*Кадры) : 0.215
Размер потока : 4,73 Гбайт (77%)
Заголовок : The.Hunger.Games.Catching.Fire.2013.BDRip.NNM-CLUB
Библиотека кодирования : x264 core 138 r2356 a1d3d17
Настройки программы : cabac=1 / ref=8 / deblock=1:-3:-3 / analyse=0x3:0x113 / me=umh / subme=10 / psy=1 / psy_rd=1.00:0.05 / mixed_ref=1 / me_range=32 / chroma_me=1 / trellis=2 / 8x8dct=1 / cqm=0 / deadzone=21,11 / fast_pskip=0 / chroma_qp_offset=-2 / threads=18 / lookahead_threads=1 / sliced_threads=0 / nr=0 / decimate=1 / interlaced=0 / bluray_compat=0 / constrained_intra=0 / bframes=5 / b_pyramid=2 / b_adapt=2 / b_bias=0 / direct=3 / weightb=1 / open_gop=0 / weightp=2 / keyint=250 / keyint_min=23 / scenecut=40 / intra_refresh=0 / rc=2pass / mbtree=0 / bitrate=4746 / ratetol=1.0 / qcomp=0.70 / qpmin=0 / qpmax=69 / qpstep=4 / cplxblur=20.0 / qblur=0.5 / ip_ratio=1.40 / pb_ratio=1.30 / aq=2:1.00
Язык : English
Default : Да
Forced : Нет
Аудио #1
Идентификатор : 2
Формат : AC-3
Формат/Информация : Audio Coding 3
Расширение режима : CM (complete main)
Параметр Endianness формата : Big
Идентификатор кодека : A_AC3
Продолжительность : 2 ч. 26 м.
Вид битрейта : Постоянный
Битрейт : 640 Кбит/сек
Каналы : 6 каналов
Расположение каналов : Front: L C R, Side: L R, LFE
Частота : 48,0 КГц
Битовая глубина : 16 бит
Метод сжатия : С потерями
Размер потока : 669 Мбайт (11%)
Заголовок : Дубляж
Язык : Russian
Default : Нет
Forced : Нет
Аудио #2
Идентификатор : 3
Формат : AC-3
Формат/Информация : Audio Coding 3
Расширение режима : CM (complete main)
Параметр Endianness формата : Big
Идентификатор кодека : A_AC3
Продолжительность : 2 ч. 26 м.
Вид битрейта : Постоянный
Битрейт : 640 Кбит/сек
Каналы : 6 каналов
Расположение каналов : Front: L C R, Side: L R, LFE
Частота : 48,0 КГц
Битовая глубина : 16 бит
Метод сжатия : С потерями
Размер потока : 669 Мбайт (11%)
Язык : English
Default : Нет
Forced : Нет
Текст #1
Идентификатор : 4
Формат : UTF-8
Идентификатор кодека : S_TEXT/UTF8
Идентификатор кодека/Информация : UTF-8 Plain Text
Язык : Russian
Default : Нет
Forced : Нет
Текст #2
Идентификатор : 5
Формат : UTF-8
Идентификатор кодека : S_TEXT/UTF8
Идентификатор кодека/Информация : UTF-8 Plain Text
Язык : English
Default : Нет
Forced : Нет
Меню
00:00:00.000 : :Chapter 1
00:11:24.683 : :Chapter 2
00:16:48.048 : :Chapter 3
00:25:38.077 : :Chapter 4
00:35:51.648 : :Chapter 5
00:44:22.576 : :Chapter 6
00:52:12.920 : :Chapter 7
01:01:11.376 : :Chapter 8
01:08:12.213 : :Chapter 9
01:16:48.938 : :Chapter 10
01:22:39.662 : :Chapter 11
01:29:21.730 : :Chapter 12
01:40:43.912 : :Chapter 13
01:50:47.765 : :Chapter 14
02:02:46.984 : :Chapter 15
02:09:58.957 : :Chapter 16
Скриншоты:


[Цитировать]



Показать сообщения:    

Текущее время: 09-Дек 20:32

Часовой пояс: UTC + 3


Вы не можете начинать темы
Вы не можете отвечать на сообщения
Вы не можете редактировать свои сообщения
Вы не можете удалять свои сообщения
Вы не можете голосовать в опросах
Вы не можете прикреплять файлы к сообщениям
Вы не можете скачивать файлы

!ВНИМАНИЕ!
Сайт не предоставляет электронные версии произведений, а занимается лишь коллекционированием и каталогизацией ссылок, присылаемых и публикуемых на форуме нашими читателями. Если вы являетесь правообладателем какого-либо представленного материала и не желаете, чтобы ссылка на него находилась в нашем каталоге, свяжитесь с нами, и мы незамедлительно удалим ее. Файлы для обмена на трекере предоставлены пользователями сайта, и администрация не несет ответственности за их содержание. Просьба не заливать файлы, защищенные авторскими правами, а также файлы нелегального содержания!