[ Сегодня идет свободное скачивание без начисления Download ]


Статистика раздачи
Нет
 
   
 
 
 
Top Gear UK / Топ Гир / Сезон: 21- Страна: Великобритания
Ведущие:: Джереми Кларксон, Ричард Хаммонд и Джеймс Мэй.
Жанр: Автошоу
Дата выпуска: 2014
Продолжительность: ~1:00:00-Релиз: &
Перевод: Профессиональный (многоголосый закадровый) - Jetvis Studio & RG.paravozik
Перевод: Андрей Шульдешов и Михаил Кульдяев (1-2), doc_ravik & steelhawk (3).
Озвучка: Jetvis Studio & RG.paravozik
Роли озвучивали: Сергей Битюцкий, Иван Назаров, Михаил Вельмискин.
А также: Алекса Мельник (2-4), Екатерина Дмитрова (1-2), Юлия Быстрова (3), Руслан Габидуллин (Кубик в Кубе) (5).
Cубтитры: русские-Описание: Aвто-шоу «Top Gear» — это программа абсолютно новой формации для телезрителей прогрессивного толка. В ней нет ни слова о недорогих семейных автомобилях, нет занудных советов автолюбителям, да и банального cлова «автолюбитель» в ней тоже нет.
Это программа для настоящих фанатов роскошных, безумно дорогих и самых быстрых автомобилей, для настоящих ценителей запаха бензина и пылающих тормозных дисков, для тех, кому не безразличен экстремальный драйв.
Эксперты программы, профессионалы высочайшего класса, способны вынести справедливый вердикт любому сверхсовременному спорткару.-Семпл: http://multi-up.com/947838-Качество видео: HDTV
Формат видео: TS
Видео: MPEG-4 AVC, 1920x1080, 25 fps, ~7.5 Mbps
Аудио RUS: AC3, 48 kHz, 2 ch, ~192 kbps avg
Аудио ENG: AC3, 48 kHz, 2 ch, ~192 kbps avg-

Описание 1-го эпизода

?Ребята покупают три горячих хэтчбека из 1980-ых и им нужно доказать, что они лучше, чем современные версии.
? Знаменитость в бюджетном авто:актер Хью Бонневилль

Описание 2-го эпизода

? Новая Альфа Ромео, Джеймс уверяет что он не жирный и многое другое...
?Знаменитость в бюджетном авто:актер Томас Уильям Хиддлстон

Описание 3-го эпизода

? Джереми Кларксон ест капусту и тестирует суперкар из Дании Zenvo ST1, Джеймс выбрасывает птицу из машины а Ричард забывает аббревиатуру Америки...
Путешествие в Украину на трех компактных малолитражках: Кларксон на Volkswagen Up, Мэй на Dacia Sandero и Хаммонд на Ford Fiesta.
? Знаменитость в бюджетном авто: Джеймс Блант, английский певец и музыкант

Описание 4-го эпизода

? Джеймс Мэй тестирует новейшие Caterham - ослепительно быстрый Seven 620 R и медленный (лучший?) Seven 160. Caterham Aeroseven Concept также показан.
Джереми Кларксон садится за руль Alfa Romeo Disco Volante.
Ричард Хаммонд отправляется в Объединенные Арабские Эмираты чтобы управлять Mercedes-Benz G63 AMG 6?6.
Джереми Кларксон интересуется, может ли автомобиль стянуть скатерть со стола, не разбив при этом посуду.
? Знаменитость в бюджетном авто: Джэк Уайтхолл, актёр

Описание 5-го эпизода

? Джереми сравнивает три горячих хэтчбека.
Ричард Хаммонд в Абу-Даби тестирует новый гибридный гиперкар Porsche 918.
Джереми Кларксон и Джеймс Мэй снимают фильм для пропаганды велосипедных прогулок.
? Знаменитость в бюджетном авто: Аарон Пол, американский актёр. Лауреат премии «Эмми» ("Во все тяжкие").

Описание 6-го эпизода

? Специальный рождественский выпуск (В марте)
Ведущие едут на купленных в интернете грузовиках по всей Бирме, чтобы построить мост через реку Квай. 1-я часть

MediaInfo

D:\Movies\HD-DVD\Top.Gear.S21.1080i.HDTV.DD2.0.H.264.RUS\Top.Gear.S21E01.1080i.HDTV.DD2.0.H.264.RUS.ts
General #1
ID : 1 (0x1)
Complete name : D:\Movies\HD-DVD\Top.Gear.S21.1080i.HDTV.DD2.0.H.264.RUS\Top.Gear.S21E01.1080i.HDTV.DD2.0.H.264.RUS.ts
Format : MPEG-TS
File size : 3.29 GiB
Duration : 1h 1mn
Overall bit rate mode : Variable
Overall bit rate : 7 595 Kbps
Maximum Overall bit rate : 35.5 Mbps
Video #4113
ID : 4113 (0x1011)
Menu ID : 1 (0x1)
Format : AVC
Format/Info : Advanced Video Codec
Format profile : [email protected]
Format settings, CABAC : Yes
Format settings, ReFrames : 4 frames
Codec ID : 27
Duration : 1h 1mn
Bit rate mode : Variable
Bit rate : 6 831 Kbps
Maximum bit rate : 40.0 Mbps
Width : 1 920 pixels
Height : 1 080 pixels
Display aspect ratio : 16:9
Frame rate : 25.000 fps
Standard : Component
Color space : YUV
Chroma subsampling : 4:2:0
Bit depth : 8 bits
Scan type : MBAFF
Bits/(Pixel*Frame) : 0.132
Stream size : 2.96 GiB (90%)
Color primaries : BT.709
Transfer characteristics : BT.709
Matrix coefficients : BT.709
Audio #4352
ID : 4352 (0x1100)
Menu ID : 1 (0x1)
Format : AC-3
Format/Info : Audio Coding 3
Mode extension : CM (complete main)
Format settings, Endianness : Big
Codec ID : 129
Duration : 1h 1mn
Bit rate mode : Constant
Bit rate : 192 Kbps
Channel(s) : 2 channels
Channel positions : Front: L R
Sampling rate : 48.0 KHz
Bit depth : 16 bits
Compression mode : Lossy
Stream size : 85.1 MiB (3%)
Language : Russian
Audio #4353
ID : 4353 (0x1101)
Menu ID : 1 (0x1)
Format : AC-3
Format/Info : Audio Coding 3
Mode extension : CM (complete main)
Format settings, Endianness : Big
Codec ID : 129
Duration : 1h 1mn
Bit rate mode : Constant
Bit rate : 192 Kbps
Channel(s) : 2 channels
Channel positions : Front: L R
Sampling rate : 48.0 KHz
Bit depth : 16 bits
Compression mode : Lossy
Stream size : 85.1 MiB (3%)
Language : English
Text #4608
ID : 4608 (0x1200)
Menu ID : 1 (0x1)
Format : PGS
Codec ID : 144
Duration : 1h 1mn
Delay relative to video : 6s 0ms
Language : Russian

Скриншоты

[Цитировать]



Показать сообщения:    

Текущее время: 05-Дек 21:40

Часовой пояс: UTC + 3


Вы не можете начинать темы
Вы не можете отвечать на сообщения
Вы не можете редактировать свои сообщения
Вы не можете удалять свои сообщения
Вы не можете голосовать в опросах
Вы не можете прикреплять файлы к сообщениям
Вы не можете скачивать файлы

!ВНИМАНИЕ!
Сайт не предоставляет электронные версии произведений, а занимается лишь коллекционированием и каталогизацией ссылок, присылаемых и публикуемых на форуме нашими читателями. Если вы являетесь правообладателем какого-либо представленного материала и не желаете, чтобы ссылка на него находилась в нашем каталоге, свяжитесь с нами, и мы незамедлительно удалим ее. Файлы для обмена на трекере предоставлены пользователями сайта, и администрация не несет ответственности за их содержание. Просьба не заливать файлы, защищенные авторскими правами, а также файлы нелегального содержания!