[ Сегодня идет свободное скачивание без начисления Download ]


Статистика раздачи
Нет
 
   
 
 
 
-Волк с Уолл-стрит / The Wolf of Wall Street (2013) HDRip- Год выпуска: 2013
Производство: США
Жанр: Драма, Комедия, Криминал
Перевод: Дублированный (Звук с TS)
Субтитры: Отсутствуют
Дата мировой премьеры: 25 декабря 2013
Дата российской премьеры: 6 февраля 2014, «West»
Дата выхода DVD релиза: Нет информации
Режиссер: Мартин Скорсезе
Продюсер: Риза Азиз, Леонардо ДиКаприо, Дэнни Димборт
Актеры: Леонардо ДиКаприо, Джона Хилл, Марго Робби, Мэттью МакКонахи, Кайл Чандлер, Роб Райнер, Джон Фавро, Жан Дюжарден, Ши Уигхэм, Спайк Джонс
Описание фильма:
Джордан Белфорт основал одну из крупнейших брокерских контор в 1987 году, но десять лет спустя был осужден за отмывание денег и ряд прочих финансовых преступлений. Он справился с алкогольной и наркотической зависимостью, выработанной за время махинаций на Уолл-стрит, написал две книги и теперь читает лекции о том, как достичь успеха.
Рейтинг MPAA: R (лицам до 17 лет обязательно присутствие взрослого)
Возраст: 18+

Продолжительность: 02:59:52
Качество видео: HDRip
Видеокодек: Xvid
Битрейт видео: ~ 887 Kbit/s
Размер кадра: 720x304, 23,976 fps
Aудио: AC-3, 48.0 KHz, 2 ch, 192 Kbps, CBR (Русский, Дубляж)

Знаете ли Вы, что...

• Фильм снят по мотивам книги мемуаров Джордана Белфорта «Волк с Уолл-стрит» (The Wolf of Wall Street, 2008).
• За весь фильм герои произносят слово — «[censored]» 506 раз.
• Актерский состав, собранный Мартином Скорсезе, включает в себя еще и трех известных режиссеров: Роб Райнер, Спайк Джонс и Джон Фавро.
• ДиКаприо провел много месяцев, работая с Белфортом, чтобы как можно точнее передать определённые моменты его жизни.
• Актеры нюхали измельченный витамин B в сценах, содержащих употребление кокаина. Несмотря на неприятное ощущение в носу, это придало актерам больше энергии для выполнения их сцен.
• Марго Робби призналась, что однажды, во время съемки сцены, случайно ударила Леонардо ДиКаприо чуть сильнее, чем обычно. После этого на съемочной площадке воцарилась абсолютная тишина, но затем раздался оглушительный смех, а Робби испугалась, что ДиКаприо засудит ее и извинилась, но тот был впечатлен ее смелостью и попросил ударить его еще раз.
• Во время сцены поцелуя Леонардо ДиКаприо и Джоанны Ламли, Леонардо так сильно нервничал, что понадобилось 27 дублей, чтобы снять сцену как требовалось.
• Остальные факты на kinopoisk.ru

Награды:

Оскар, 2014 год
Номинации (5):
• Лучший фильм
• Лучшая мужская роль (Леонардо ДиКаприо)
• Лучшая мужская роль второго плана (Джона Хилл)
• Лучший режиссер (Мартин Скорсезе)
• Лучший адаптированный сценарий
Золотой глобус, 2014 год
Победитель (1):
• Лучшая мужская роль (комедия или мюзикл) (Леонардо ДиКаприо)
Номинации (1):
• Лучший фильм (комедия или мюзикл)
Британская академия, 2014 год
Номинации (4):
• Лучшая мужская роль (Леонардо ДиКаприо)
• Лучший адаптированный сценарий
• Лучший монтаж
• Премия имени Дэвида Лина за достижения в режиссуре (Мартин Скорсезе)

MediaInfo:

Формат                                   : AVI
Формат/Информация                        : Audio Video Interleave
Размер файла                             : 1,37 Гбайт
Продолжительность                        : 2 ч. 59 м.
Общий поток                              : 1089 Кбит/сек
Программа кодирования                    : VirtualDubMod 1.5.10.2 (build 2540/release)
Библиотека кодирования                   : VirtualDubMod build 2540/release
Видео
Идентификатор                            : 0
Формат                                   : MPEG-4 Visual
Профиль формата                          : Advanced [email protected]
Параметр BVOP формата                    : 2
Параметр QPel формата                    : Нет
Параметр GMC формата                     : Без точки перехода
Параметр матрицы формата                 : Выборочная
Идентификатор кодека                     : XVID
Идентификатор кодека/Подсказка           : XviD
Продолжительность                        : 2 ч. 59 м.
Битрейт                                  : 887 Кбит/сек
Ширина                                   : 720 пикселей
Высота                                   : 304 пикселя
Соотношение сторон                       : 2,35:1
Частота кадров                           : 23,976 кадра/сек
Цветовое пространство                    : YUV
Субдискретизация насыщенности            : 4:2:0
Битовая глубина                          : 8 бит
Тип развёртки                            : Прогрессивная
Метод сжатия                             : С потерями
Бит/(Пиксели*Кадры)                      : 0.169
Размер потока                            : 1,11 Гбайт (81%)
Библиотека кодирования                   : XviD 1.2.1 (UTC 2008-12-04)
Аудио
Идентификатор                            : 1
Формат                                   : AC-3
Формат/Информация                        : Audio Coding 3
Расширение режима                        : CM (complete main)
Параметр Endianness формата              : Big
Идентификатор кодека                     : 2000
Продолжительность                        : 2 ч. 59 м.
Вид битрейта                             : Постоянный
Битрейт                                  : 192 Кбит/сек
Каналы                                   : 2 канала
Расположение каналов                     : Front: L R
Частота                                  : 48,0 КГц
Битовая глубина                          : 16 бит
Метод сжатия                             : С потерями
Размер потока                            : 247 Мбайт (18%)
Выравнивание                             : Разделение по промежуткам
Продолжительность промежутка             : 42  мс. (1,00 видеокадр)
Время предзагрузки промежутка            : 500  мс.
Скриншоты:

[Цитировать]

Топик был перенесен из форума Новинки кинопроката в форум Нарушения
neo11



Показать сообщения:    

Текущее время: 05-Дек 19:40

Часовой пояс: UTC + 3


Вы не можете начинать темы
Вы не можете отвечать на сообщения
Вы не можете редактировать свои сообщения
Вы не можете удалять свои сообщения
Вы не можете голосовать в опросах
Вы не можете прикреплять файлы к сообщениям
Вы не можете скачивать файлы

!ВНИМАНИЕ!
Сайт не предоставляет электронные версии произведений, а занимается лишь коллекционированием и каталогизацией ссылок, присылаемых и публикуемых на форуме нашими читателями. Если вы являетесь правообладателем какого-либо представленного материала и не желаете, чтобы ссылка на него находилась в нашем каталоге, свяжитесь с нами, и мы незамедлительно удалим ее. Файлы для обмена на трекере предоставлены пользователями сайта, и администрация не несет ответственности за их содержание. Просьба не заливать файлы, защищенные авторскими правами, а также файлы нелегального содержания!