[ Сегодня идет свободное скачивание без начисления Download ]


Статистика раздачи
Нет
 
   
 
Top  
 
 
-Эксперимент Ганцфельда / The Ganzfeld Haunting (2014) WEB-DL- Год выпуска: 2014
Производство: США | Bon Vivant Films, Concrete Images, Minus Zero Films, The Ganzfeld Experiment Film
Жанр: Ужасы, Триллер
Перевод: Любительский (одноголосый, закадровый)
Озвучка / Автор перевода: Xixidok
Субтитры: Отсутствуют
Дата мировой премьеры: 18 февраля 2014
Дата российской премьеры: Неизвестно
Дата выхода DVD релиза: Неизвестно
Режиссер: Майкл Обловитц
Продюсер: Саломе Брезинер, Майкл Обловитц, Хани Селим
Актеры: Дианна Камачо, Тейлор Коул, Райан Доноху, Кимберли Эстрада, Микайла Фигуроа, Тоби Хемингуэй, Коуди Хауэлл, Холт МакКэллани, Доминик Пёрселл, Рико Симонини
Описание фильма:
Четыре студента-психолога собираются вместе в уединенном доме на выходные для того, чтобы попытаться провести эксперимент Ганцфельда, иначе говоря — тест на паранормальные способности.

Продолжительность: 01:26:04
Качество видео: WEB-DL [720p-LQ]
Видео кодек: MPEG-4 AVC/H.264
Аудио кодек: MP3, AC3
Видео: 1280x544 (2.35:1), 23,976 fps, 3673 kbps, 0.220 bit/ pixel
Аудио №1: Russian : 44.100 kHz, MPEG Layer 3, 2 ch, ~192.00 kbps avg
Аудио №2: English: 48 kHz, AC3 Dolby Digital, 2/0 (L,R) ch, ~384 kbps avg
Сэмпл: Скачать

MediaInfo

General
Unique ID                      : 218014379112916361153748828581607995697 (0xA4040AC754D6286BB259A1E8F2CB7931)
Complete name                  : D:\фильмы\Experiment.Gantsveljda.2014.WEB-DL.720p..mkv
Format                         : Matroska
Format version                 : Version 4 / Version 2
File size                      : 2.61 GiB
Duration                       : 1h 26mn
Overall bit rate               : 4 335 Kbps
Encoded date                   : UTC 2014-03-13 11:03:13
Writing application            : mkvmerge v6.1.0 ('Old Devil') built on Mar  4 2013 09:10:42
Writing library                : libebml v1.3.0 + libmatroska v1.4.0
Video
ID                             : 1
Format                         : AVC
Format/Info                    : Advanced Video Codec
Format profile                 : [url=mailto:Main@L3.1]Main@L3.1[/url]
Format settings, CABAC         : No
Format settings, ReFrames      : 2 frames
Codec ID                       : V_MPEG4/ISO/AVC
Duration                       : 1h 26mn
Bit rate                       : 3 673 Kbps
Width                          : 1 280 pixels
Height                         : 544 pixels
Display aspect ratio           : 2.35:1
Frame rate mode                : Constant
Frame rate                     : 23.976 fps
Color space                    : YUV
Chroma subsampling             : 4:2:0
Bit depth                      : 8 bits
Scan type                      : Progressive
Bits/(Pixel*Frame)             : 0.220
Stream size                    : 2.21 GiB (85%)
Language                       : English
Default                        : Yes
Forced                         : No
Color primaries                : BT.709
Transfer characteristics       : BT.709
Matrix coefficients            : BT.709
Audio #1
ID                             : 2
Format                         : MPEG Audio
Format version                 : Version 1
Format profile                 : Layer 3
Codec ID                       : A_MPEG/L3
Codec ID/Hint                  : MP3
Duration                       : 1h 26mn
Bit rate mode                  : Constant
Bit rate                       : 192 Kbps
Channel(s)                     : 2 channels
Sampling rate                  : 44.1 KHz
Compression mode               : Lossy
Stream size                    : 118 MiB (4%)
Language                       : Russian
Default                        : Yes
Forced                         : No
Audio #2
ID                             : 3
Format                         : AC-3
Format/Info                    : Audio Coding 3
Mode extension                 : CM (complete main)
Format settings, Endianness    : Big
Codec ID                       : A_AC3
Duration                       : 1h 26mn
Bit rate mode                  : Constant
Bit rate                       : 384 Kbps
Channel(s)                     : 6 channels
Channel positions              : Front: L C R, Side: L R, LFE
Sampling rate                  : 48.0 KHz
Bit depth                      : 16 bits
Compression mode               : Lossy
Stream size                    : 236 MiB (9%)
Language                       : English
Default                        : No
Forced                         : No
Menu
00:00:00.000                   : en:These Are the Events
00:09:37.000                   : en:It's Freezing In Here
00:17:29.000                   : en:Bad Trip?
00:26:34.000                   : en:Magic and Drugs
00:37:58.000                   : en:Getting Hot In Here
00:44:44.000                   : en:Someone Is Here
00:55:41.000                   : en:Sister
01:01:42.000                   : en:Try Experiment Again
01:10:35.000                   : en:Time For My Revenge
01:21:19.000                   : en:Credits
Скриншоты:

Время раздачи: 10:00 - 24:00

[Цитировать]

Топик был перенесен из форума Новинки кинопроката в форум Зарубежное кино (HD Video)
Henkok



Показать сообщения:    

Текущее время: 09-Дек 20:26

Часовой пояс: UTC + 3


Вы не можете начинать темы
Вы не можете отвечать на сообщения
Вы не можете редактировать свои сообщения
Вы не можете удалять свои сообщения
Вы не можете голосовать в опросах
Вы не можете прикреплять файлы к сообщениям
Вы не можете скачивать файлы

!ВНИМАНИЕ!
Сайт не предоставляет электронные версии произведений, а занимается лишь коллекционированием и каталогизацией ссылок, присылаемых и публикуемых на форуме нашими читателями. Если вы являетесь правообладателем какого-либо представленного материала и не желаете, чтобы ссылка на него находилась в нашем каталоге, свяжитесь с нами, и мы незамедлительно удалим ее. Файлы для обмена на трекере предоставлены пользователями сайта, и администрация не несет ответственности за их содержание. Просьба не заливать файлы, защищенные авторскими правами, а также файлы нелегального содержания!