[ Сегодня идет свободное скачивание без начисления Download ]


Статистика раздачи
Нет
 
   
 
 
 
-Главная дорога (15.03.2014) IPTVRip - Режиссер / Телекомпания: НТВ
Русское название: Главная дорога.
Год выпуска: 2014
Жанр: Телепередача-Описание:
«Главная дорога» — первая на российском телевидении информационная программа обо всем, что происходит на дорогах страны. Это полчаса полезной информации не только для автолюбителей, но и для пешеходов. В постоянной рубрике «Испытано на себе» зрителей ждут наглядные советы, как вести себя в сложных ситуациях на дорогах. Сложнейший курс контраварийной подготовки, адаптированный для массового зрителя, научит водителей уверенно держаться за рулем. Занятия проводит инструктор известного во всем мире Центра высшего водительского мастерства. И в каждом выпуске проекта — моделирование аварийных ситуаций: разбор и рекомендации по предотвращению происшествий, а также советы юристов. В рубрике «$еконд-тест» ведущие программы вместе с автоэкспертами выбирают подержанные автомобили, испытывают их на полигоне и проверяют в сервисе. А в «Федеральной трассе» рассказывается о дорогах нашей страны, их особенностях и достопримечательностях. Показать всю важность соблюдения ПДД и сделать российские дороги безопаснее — цель программы и ее ведущих — актеров Дениса Юченкова и Андрея Федорцова.
Ведущие: Денис Юченков, Андрей Федорцов
Продолжительность: ~ 00:26:59
Видеокодек: XviD
Битрейт видео: ~1500 kb/s
Размер кадра: 720 x 464
Качество видео: IPTVRip
Аудиокодек: MP3, 2ch.
Битрейт аудио: 128 kb/s-

MediaInfo

Формат : AVI
Формат/Информация : Audio Video Interleave
Размер файла : 316 Мбайт
Продолжительность : 26 м.
Общий поток : 1637 Кбит/сек
Программа кодирования : TMPGEnc Video Mastering Works 5 Version. 5.0.6.38
Библиотека кодирования : TMPGEnc Video Mastering Works 5 Version. 5.0.6.38
Видео
Идентификатор : 0
Формат : MPEG-4 Visual
Профиль формата : Advanced Simple@L5
Параметр BVOP формата : 2
Параметр QPel формата : Нет
Параметр GMC формата : Без точки перехода
Параметр матрицы формата : Default (MPEG)
Идентификатор кодека : XVID
Идентификатор кодека/Подсказка : XviD
Продолжительность : 26 м.
Битрейт : 1502 Кбит/сек
Ширина : 720 пикселей
Высота : 464 пикселя
Соотношение сторон : 1,552
Частота кадров : 25,000 кадров/сек
Цветовое пространство : YUV
Субдискретизация насыщенности : 4:2:0
Битовая глубина : 8 бит
Тип развёртки : Прогрессивная
Метод сжатия : С потерями
Бит/(Пиксели*Кадры) : 0.180
Размер потока : 290 Мбайт (92%)
Библиотека кодирования : XviD 64
Аудио
Идентификатор : 1
Формат : MPEG Audio
Версия формата : Version 1
Профиль формата : Layer 3
Режим : Joint stereo
Расширение режима : MS Stereo
Идентификатор кодека : 55
Идентификатор кодека/Подсказка : MP3
Продолжительность : 26 м.
Вид битрейта : Постоянный
Битрейт : 128 Кбит/сек
Каналы : 2 канала
Частота : 48,0 КГц
Метод сжатия : С потерями
Размер потока : 24,7 Мбайт (8%)
Выравнивание : Соединение по промежуткам
Продолжительность промежутка : 250 мс. (6,25 видеокадров)
Время предзагрузки промежутка : 192 мс.

В выпуске:

Дворовые войны: как оградить свой двор законно?
Что ждет владельцев чужих машин?
Что опаснее – планшет или скучающий пассажир? Выбираем кино в дорогу.
Скриншоты:

[Цитировать]



Показать сообщения:    

Текущее время: 08-Дек 03:10

Часовой пояс: UTC + 3


Вы не можете начинать темы
Вы не можете отвечать на сообщения
Вы не можете редактировать свои сообщения
Вы не можете удалять свои сообщения
Вы не можете голосовать в опросах
Вы не можете прикреплять файлы к сообщениям
Вы не можете скачивать файлы

!ВНИМАНИЕ!
Сайт не предоставляет электронные версии произведений, а занимается лишь коллекционированием и каталогизацией ссылок, присылаемых и публикуемых на форуме нашими читателями. Если вы являетесь правообладателем какого-либо представленного материала и не желаете, чтобы ссылка на него находилась в нашем каталоге, свяжитесь с нами, и мы незамедлительно удалим ее. Файлы для обмена на трекере предоставлены пользователями сайта, и администрация не несет ответственности за их содержание. Просьба не заливать файлы, защищенные авторскими правами, а также файлы нелегального содержания!