[ Сегодня идет свободное скачивание без начисления Download ]


Статистика раздачи
Нет
 
   
 
Top  
 
 
-Уцелевший / Lone Survivor (2013) WEB-DL [H.264/1080p-LQ]«Жить, чтобы рассказать историю»- Год выпуска: 2013
Производство: США
Жанр: Боевик, триллер, драма
Перевод: Дублированный (iTunes)
Субтитры: Отсутствуют
Режиссер: Питер Берг
Продюсер: Сара Обри, Рэндолл Эмметт, Акива Голдсман
Актеры: Марк Уолберг, Тейлор Китч, Эмиль Хирш, Бен Фостер, Юсуф Азами, Али Сулиман, Эрик Бана, Александр Людвиг, Рич Тинг, Дэн Билзериан
Описание фильма:
Афганистан, 2005 год. Команда американских спецназовцев получает задание обезвредить известного лидера талибов Ахмада Шаха. Попав в ловушку, солдаты принимают неравный кровопролитный бой, и все они погибают героями. Все, кроме одного. Для уцелевшего Маркуса Латтрела бой только начинается: он любой ценой должен выжить и пробраться к «своим». Когда почти всё потеряно, ему решается помочь Гулаб — мирный человек, ненавидящий войну.
Рейтинг MPAA: R (лицам до 17 лет обязательно присутствие взрослого)
Возраст: 16+

Дата мировой премьеры: 12 ноября 2013
Дата российской премьеры: 20 февраля 2014, «Люксор»
Дата выхода DVD релиза: 25 марта 2014, «Lizard Cinema Trade»
Дата выхода Blu-Ray релиза: 25 марта 2014, «Lizard Cinema Trade»
Продолжительность: 02:01:14
Качество видео: WEB-DL (1080p-LQ)
Видеокодек: MPEG-4 AVC/H.264
Битрейт видео: ~ 4202 Kbit/s
Размер кадра: 1920x810, 24 fps
Aудио: AC-3, 48.0 KHz, 6 ch, 384 Kbps, CBR (Русский, Дубляж)

MediaInfo:

Формат                                   : Matroska
Версия формата                           : Version 2
Размер файла                             : 3,96 Гбайт
Продолжительность                        : 2 ч. 1 м.
Общий поток                              : 4679 Кбит/сек
Дата кодирования                         : UTC 2014-03-13 22:29:13
Программа кодирования                    : mkvmerge v5.8.0 ('No Sleep / Pillow') built on Sep  2 2012 15:37:04
Библиотека кодирования                   : libebml v1.2.3 + libmatroska v1.3.0
Видео
Идентификатор                            : 1
Формат                                   : AVC
Формат/Информация                        : Advanced Video Codec
Профиль формата                          : [url=mailto:[email protected]][email protected][/url]
Параметр CABAC формата                   : Да
Параметр ReFrames формата                : 5 кадров
Идентификатор кодека                     : V_MPEG4/ISO/AVC
Продолжительность                        : 2 ч. 1 м.
Битрейт                                  : 4202 Кбит/сек
Ширина                                   : 1920 пикселей
Высота                                   : 810 пикселей
Соотношение сторон                       : 2,40:1
Режим частоты кадров                     : Постоянный
Частота кадров                           : 24,000 кадра/сек
Цветовое пространство                    : YUV
Субдискретизация насыщенности            : 4:2:0
Битовая глубина                          : 8 бит
Тип развёртки                            : Прогрессивная
Бит/(Пиксели*Кадры)                      : 0.113
Размер потока                            : 3,56 Гбайт (90%)
Язык                                     : English
Default                                  : Да
Forced                                   : Нет
Основные цвета                           : BT.709
Характеристики трансфера                 : BT.709
Коэффициенты матрицы                     : BT.709
Аудио
Идентификатор                            : 2
Формат                                   : AC-3
Формат/Информация                        : Audio Coding 3
Расширение режима                        : CM (complete main)
Параметр Endianness формата              : Big
Идентификатор кодека                     : A_AC3
Продолжительность                        : 2 ч. 1 м.
Вид битрейта                             : Постоянный
Битрейт                                  : 384 Кбит/сек
Каналы                                   : 6 каналов
Расположение каналов                     : Front: L C R, Side: L R, LFE
Частота                                  : 48,0 КГц
Битовая глубина                          : 16 бит
Метод сжатия                             : С потерями
Размер потока                            : 333 Мбайт (8%)
Язык                                     : Russian
Default                                  : Да
Forced                                   : Нет
Меню
00:00:00.000                             : en:Глава 1
00:10:36.000                             : en:Глава 2
00:15:38.000                             : en:Глава 3
00:20:40.000                             : en:Глава 4
00:25:41.000                             : en:Глава 5
00:30:43.000                             : en:Глава 6
00:35:44.000                             : en:Глава 7
00:40:45.000                             : en:Глава 8
00:45:45.000                             : en:Глава 9
00:50:50.000                             : en:Глава 10
00:55:57.000                             : en:Глава 11
01:01:00.000                             : en:Глава 12
01:06:06.000                             : en:Глава 13
01:11:07.000                             : en:Глава 14
01:16:10.000                             : en:Глава 15
01:21:12.000                             : en:Глава 16
01:26:13.000                             : en:Глава 17
01:31:15.000                             : en:Глава 18
01:36:15.000                             : en:Глава 19
01:41:16.000                             : en:Глава 20
01:46:20.000                             : en:Глава 21
01:51:20.000                             : en:Глава 22
Скриншоты:

[Цитировать]



Показать сообщения:    

Текущее время: 04-Дек 13:18

Часовой пояс: UTC + 3


Вы не можете начинать темы
Вы не можете отвечать на сообщения
Вы не можете редактировать свои сообщения
Вы не можете удалять свои сообщения
Вы не можете голосовать в опросах
Вы не можете прикреплять файлы к сообщениям
Вы не можете скачивать файлы

!ВНИМАНИЕ!
Сайт не предоставляет электронные версии произведений, а занимается лишь коллекционированием и каталогизацией ссылок, присылаемых и публикуемых на форуме нашими читателями. Если вы являетесь правообладателем какого-либо представленного материала и не желаете, чтобы ссылка на него находилась в нашем каталоге, свяжитесь с нами, и мы незамедлительно удалим ее. Файлы для обмена на трекере предоставлены пользователями сайта, и администрация не несет ответственности за их содержание. Просьба не заливать файлы, защищенные авторскими правами, а также файлы нелегального содержания!