[ Сегодня идет свободное скачивание без начисления Download ]


Статистика раздачи
Нет
 
   
 
Top  
 
 
-Облачно, возможны осадки: Месть ГМО / Cloudy with a Chance of Meatballs 2 (2013) BDRip- Год выпуска: 2013
Производство: США | Columbia Pictures, Sony Pictures Animation, SPI
Жанр: Фантастика, Фэнтези, Комедия, Семейный
Перевод: Дублированный
Вид субтитров: Вшитые отключаемые
Язык субтитров: Русский, английский-Дата мировой премьеры: 26 сентября 2013 (Чили)
Дата российской премьеры: 24 октября 2013, «WDSSPR»
Дата выхода DVD релиза: 11 февраля 2014, «Columbia/Sony»
Дата выхода Blu-Ray релиза: 11 февраля 2014, «Columbia/Sony»-Режиссер: Коуди Камерон, Крис Пирн-Продюсеры: Кирк Бодифелт, Фил Лорд, Пэм Мэрсден-Персонажи: Роли озвучивали: Билл Хейдер, Анна Фэрис, Джеймс Каан, Уилл Форте, Энди Сэмберг, Бенджамин Брэтт, Нил Патрик Харрис, Терри Крюс, Кристен Шаал, Коуди Камерон ...-Роли дублировали: Александр Пушной, Игорь Угольников ...-Описание:
Все жители острова Поплавок покинули родной дом после событий предыдущего мультфильма. Главный герой Флинт Локвуд теперь работает в компании The Live Corp на своего кумира Честера. Но ему придется оставить свой пост когда он узнает, что его печально-известная машина все ещё работает и производит на свет опасных гибридов. Флинту предстоит ещё раз спасти мир и не дать коварной машине распространить громадную еду по всему миру.-
Продолжительность: 01:34:49
Качество видео: BDRip 1080p
Видеокодек: MPEG-4 AVC/H.264
Битрейт видео: ~ 10,5 Мбит/сек
Размер кадра: 1920 x 800 (2.400) at 23.976 fps
Аудио #1: AC3 640 Кбит/сек (6ch), 48,0 КГц, 16 бит [Русский, Дубляж Blu-ray CEE]
Аудио #2: DTS 1510 Кбит/сек (6ch), 48,0 КГц, 24 бит [Английский]
Дополнительно: Сохранены оригинальные чаптеры как на Blu-ray

Знаете ли вы, что...

• Вместо Мистера Ти Эрла озвучил Терри Крюс. Мистеру Ти предлагали озвучить этого персонажа в сиквеле, но он отказался. Большинство движений и мимика этого персонажа были взяты с экранного образа Терри Крюса.

MediaInfo:

Уникальный идентификатор                 : 247637770079050741869621656600101370290 (0xBA4D4CB78B27056FB7B5F3127AE5B9B2)
Полное имя                               : F:\Oblachno.2.Mest.GMO.2013.D.BDRip.1080p.mkv
Формат                                   : Matroska
Версия формата                           : Version 2
Размер файла                             : 8,33 Гбайт
Продолжительность                        : 1 ч. 34 м.
Общий поток                              : 12,6 Мбит/сек
Дата кодирования                         : UTC 2014-02-05 08:20:56
Программа кодирования                    : mkvmerge v6.7.0 ('Back to the Ground') 32bit built on Jan  8 2014 15:03:17
Библиотека кодирования                   : libebml v1.3.0 + libmatroska v1.4.1
Видео
Идентификатор                            : 1
Формат                                   : AVC
Формат/Информация                        : Advanced Video Codec
Профиль формата                          : [url=mailto:High@L4.1]High@L4.1[/url]
Параметр CABAC формата                   : Да
Параметр ReFrames формата                : 5 кадров
Идентификатор кодека                     : V_MPEG4/ISO/AVC
Продолжительность                        : 1 ч. 34 м.
Битрейт                                  : 10,5 Мбит/сек
Ширина                                   : 1920 пикселей
Высота                                   : 800 пикселей
Соотношение сторон                       : 2,40:1
Режим частоты кадров                     : Постоянный
Частота кадров                           : 23,976 кадра/сек
Цветовое пространство                    : YUV
Субдискретизация насыщенности            : 4:2:0
Битовая глубина                          : 8 бит
Тип развёртки                            : Прогрессивная
Бит/(Пиксели*Кадры)                      : 0.284
Размер потока                            : 6,74 Гбайт (81%)
Библиотека кодирования                   : x264 core 138 r2358 9e941d1
Настройки программы                      : cabac=1 / ref=5 / deblock=1:-3:-3 / analyse=0x3:0x113 / me=umh / subme=11 / psy=1 / psy_rd=1.05:0.10 / mixed_ref=1 / me_range=48 / chroma_me=1 / trellis=2 / 8x8dct=1 / cqm=0 / deadzone=21,11 / fast_pskip=0 / chroma_qp_offset=-2 / threads=18 / lookahead_threads=1 / sliced_threads=0 / nr=0 / decimate=1 / interlaced=0 / bluray_compat=0 / constrained_intra=0 / bframes=6 / b_pyramid=2 / b_adapt=2 / b_bias=0 / direct=3 / weightb=1 / open_gop=0 / weightp=2 / keyint=250 / keyint_min=23 / scenecut=40 / intra_refresh=0 / rc_lookahead=40 / rc=2pass / mbtree=0 / bitrate=10452 / ratetol=2.0 / qcomp=0.70 / qpmin=0 / qpmax=69 / qpstep=4 / cplxblur=20.0 / qblur=0.5 / vbv_maxrate=40000 / vbv_bufsize=30000 / nal_hrd=none / ip_ratio=1.40 / pb_ratio=1.30 / aq=2:1.00
Язык                                     : English
Default                                  : Да
Forced                                   : Нет
Аудио #1
Идентификатор                            : 2
Формат                                   : AC-3
Формат/Информация                        : Audio Coding 3
Расширение режима                        : CM (complete main)
Параметр Endianness формата              : Big
Идентификатор кодека                     : A_AC3
Продолжительность                        : 1 ч. 34 м.
Вид битрейта                             : Постоянный
Битрейт                                  : 640 Кбит/сек
Каналы                                   : 6 каналов
Расположение каналов                     : Front: L C R, Side: L R, LFE
Частота                                  : 48,0 КГц
Битовая глубина                          : 16 бит
Метод сжатия                             : С потерями
Размер потока                            : 434 Мбайт (5%)
Язык                                     : Russian
Default                                  : Да
Forced                                   : Нет
Аудио #2
Идентификатор                            : 3
Формат                                   : DTS
Формат/Информация                        : Digital Theater Systems
Режим                                    : 16
Параметр Endianness формата              : Big
Идентификатор кодека                     : A_DTS
Продолжительность                        : 1 ч. 34 м.
Вид битрейта                             : Постоянный
Битрейт                                  : 1509 Кбит/сек
Каналы                                   : 6 каналов
Расположение каналов                     : Front: L C R, Side: L R, LFE
Частота                                  : 48,0 КГц
Битовая глубина                          : 24 бит
Метод сжатия                             : С потерями
Размер потока                            : 1024 Мбайт (12%)
Заголовок                                : DTS-CORE 1536K ENG
Язык                                     : English
Default                                  : Нет
Forced                                   : Нет
Текст #1
Идентификатор                            : 4
Формат                                   : UTF-8
Идентификатор кодека                     : S_TEXT/UTF8
Идентификатор кодека/Информация          : UTF-8 Plain Text
Язык                                     : Russian
Default                                  : Нет
Forced                                   : Нет
Текст #2
Идентификатор                            : 5
Формат                                   : UTF-8
Идентификатор кодека                     : S_TEXT/UTF8
Идентификатор кодека/Информация          : UTF-8 Plain Text
Язык                                     : English
Default                                  : Нет
Forced                                   : Нет
Меню
00:00:00.000                             : en:00:00:00.000
00:07:12.015                             : en:00:07:12.015
00:12:51.521                             : en:00:12:51.521
00:18:50.421                             : en:00:18:50.421
00:25:58.390                             : en:00:25:58.390
00:31:57.082                             : en:00:31:57.082
00:36:53.253                             : en:00:36:53.253
00:39:28.908                             : en:00:39:28.908
00:41:07.840                             : en:00:41:07.840
00:45:28.017                             : en:00:45:28.017
00:49:48.694                             : en:00:49:48.694
00:54:41.403                             : en:00:54:41.403
01:00:39.886                             : en:01:00:39.886
01:06:47.921                             : en:01:06:47.921
01:12:54.954                             : en:01:12:54.954
01:21:25.589                             : en:01:21:25.589
Скриншоты:




[Цитировать]



Показать сообщения:    

Текущее время: 08-Дек 03:14

Часовой пояс: UTC + 3


Вы не можете начинать темы
Вы не можете отвечать на сообщения
Вы не можете редактировать свои сообщения
Вы не можете удалять свои сообщения
Вы не можете голосовать в опросах
Вы не можете прикреплять файлы к сообщениям
Вы не можете скачивать файлы

!ВНИМАНИЕ!
Сайт не предоставляет электронные версии произведений, а занимается лишь коллекционированием и каталогизацией ссылок, присылаемых и публикуемых на форуме нашими читателями. Если вы являетесь правообладателем какого-либо представленного материала и не желаете, чтобы ссылка на него находилась в нашем каталоге, свяжитесь с нами, и мы незамедлительно удалим ее. Файлы для обмена на трекере предоставлены пользователями сайта, и администрация не несет ответственности за их содержание. Просьба не заливать файлы, защищенные авторскими правами, а также файлы нелегального содержания!