[ Сегодня идет свободное скачивание без начисления Download ]


Статистика раздачи
Нет
 
   
 
Top  
 
 
-Прибежище / Haunt (2013) WEB-DL [H.264/720p-LQ] [VO] «So, you want to hear a ghost story?»- Год выпуска: 2013
Производство: США
Жанр: Ужасы, триллер
Язык: Русский, Английский
Перевод: Одноголосый закадровый (любительский)
Озвучка/Автор перевода: den904
Субтитры: Вшитые отключаемые
Язык субтитров: Русский
Режиссер: Мак Картер
Продюсер: Билл Блок, Пол Хэнсон, Антон Лессин
Актеры: Лиана Либерато, Айони Скай, Джеки Уивер, Харрисон Джилбертсон, Даниэль Чачран, Джен Броберг, Келли Нунан, Алин Андраде, Касия Ковальчук, Себастьян Майкл Барр
Описание фильма:
Замкнутый подросток воодушевляется знакомством со своим новым соседом, и уже вместе парочка начинает исследовать дом с привидениями, который его семья накануне купила по неведению.
Рейтинг MPAA: R (лицам до 17 лет обязательно присутствие взрослого)
Возраст: 16+

Дата мировой премьеры: 6 ноября 2013
Продолжительность: 01:25:47
Качество видео: WEB-DL (720p-LQ)
Видеокодек: MPEG-4 AVC/H.264
Битрейт видео: ~ 3166 Kbit/s
Размер кадра: 1280x532, 23.976 fps
Аудио #1: AC3, 48.0 KHz, 2 ch, 192 Kbps, CBR (Русский, Одноголосый закадровый)
Аудио #2: AC3, 48.0 KHz, 6 ch, 384 Kbps, CBR (Английский)

MediaInfo:

Формат                                   : Matroska
Версия формата                           : Version 4 / Version 2
Размер файла                             : 2,29 Гбайт
Продолжительность                        : 1 ч. 25 м.
Общий поток                              : 3818 Кбит/сек
Название фильма                          : Haunt
Дата кодирования                         : UTC 2014-03-17 07:30:27
Программа кодирования                    : mkvmerge v6.8.0 ('Theme for Great Cities') 64bit built on Mar  2 2014 21:34:26
Библиотека кодирования                   : libebml v1.3.0 + libmatroska v1.4.1
Видео
Идентификатор                            : 1
Формат                                   : AVC
Формат/Информация                        : Advanced Video Codec
Профиль формата                          : [url=mailto:Main@L3.1]Main@L3.1[/url]
Параметр CABAC формата                   : Нет
Параметр ReFrames формата                : 2 кадра
Идентификатор кодека                     : V_MPEG4/ISO/AVC
Продолжительность                        : 1 ч. 25 м.
Битрейт                                  : 3166 Кбит/сек
Ширина                                   : 1280 пикселей
Высота                                   : 532 пикселя
Соотношение сторон                       : 2,40:1
Режим частоты кадров                     : Постоянный
Частота кадров                           : 23,976 кадра/сек
Цветовое пространство                    : YUV
Субдискретизация насыщенности            : 4:2:0
Битовая глубина                          : 8 бит
Тип развёртки                            : Прогрессивная
Бит/(Пиксели*Кадры)                      : 0.194
Размер потока                            : 1,90 Гбайт (83%)
Язык                                     : English
Default                                  : Да
Forced                                   : Нет
Основные цвета                           : BT.709
Характеристики трансфера                 : BT.709
Коэффициенты матрицы                     : BT.709
Аудио #1
Идентификатор                            : 2
Формат                                   : AC-3
Формат/Информация                        : Audio Coding 3
Расширение режима                        : CM (complete main)
Параметр Endianness формата              : Big
Идентификатор кодека                     : A_AC3
Продолжительность                        : 1 ч. 25 м.
Вид битрейта                             : Постоянный
Битрейт                                  : 192 Кбит/сек
Каналы                                   : 2 канала
Расположение каналов                     : Front: L R
Частота                                  : 48,0 КГц
Битовая глубина                          : 16 бит
Метод сжатия                             : С потерями
Размер потока                            : 118 Мбайт (5%)
Заголовок                                : den904
Язык                                     : Russian
Default                                  : Да
Forced                                   : Нет
Аудио #2
Идентификатор                            : 3
Формат                                   : AC-3
Формат/Информация                        : Audio Coding 3
Расширение режима                        : CM (complete main)
Параметр Endianness формата              : Big
Идентификатор кодека                     : A_AC3
Продолжительность                        : 1 ч. 25 м.
Вид битрейта                             : Постоянный
Битрейт                                  : 384 Кбит/сек
Каналы                                   : 6 каналов
Расположение каналов                     : Front: L C R, Side: L R, LFE
Частота                                  : 48,0 КГц
Битовая глубина                          : 16 бит
Метод сжатия                             : С потерями
Размер потока                            : 236 Мбайт (10%)
Язык                                     : English
Default                                  : Нет
Forced                                   : Нет
Текст
Идентификатор                            : 4
Формат                                   : UTF-8
Идентификатор кодека                     : S_TEXT/UTF8
Идентификатор кодека/Информация          : UTF-8 Plain Text
Язык                                     : Russian
Default                                  : Нет
Forced                                   : Нет
Меню
00:00:00.000                             : en:Chapter 1
00:13:22.000                             : en:Chapter 2
00:22:58.000                             : en:Chapter 3
00:32:54.000                             : en:Chapter 4
00:43:44.000                             : en:Chapter 5
00:53:51.000                             : en:Chapter 6
01:04:54.000                             : en:Chapter 7
01:13:28.000                             : en:Chapter 8
01:21:08.000                             : en:Chapter 9
Скриншоты:

Время раздачи: 24/7 (до 10 скачавших)

[Цитировать]



Показать сообщения:    

Текущее время: 10-Дек 13:50

Часовой пояс: UTC + 3


Вы не можете начинать темы
Вы не можете отвечать на сообщения
Вы не можете редактировать свои сообщения
Вы не можете удалять свои сообщения
Вы не можете голосовать в опросах
Вы не можете прикреплять файлы к сообщениям
Вы не можете скачивать файлы

!ВНИМАНИЕ!
Сайт не предоставляет электронные версии произведений, а занимается лишь коллекционированием и каталогизацией ссылок, присылаемых и публикуемых на форуме нашими читателями. Если вы являетесь правообладателем какого-либо представленного материала и не желаете, чтобы ссылка на него находилась в нашем каталоге, свяжитесь с нами, и мы незамедлительно удалим ее. Файлы для обмена на трекере предоставлены пользователями сайта, и администрация не несет ответственности за их содержание. Просьба не заливать файлы, защищенные авторскими правами, а также файлы нелегального содержания!