[ Сегодня идет свободное скачивание без начисления Download ]


Статистика раздачи
Нет
 
   
 
Top  
 
 
-Перекрестный огонь / Bad Country (2014) BDRip [720p]- Год выпуска: 2014
Производство: США
Жанр: Боевик, Триллер, Драма
Перевод: Многоголосый закадровый, профессиональный
Субтитры: Вшитые отключаемые
Язык субтитров: Украинский, Английский
Режиссер: Крис Бринкер
Продюсер: Крис Бринкер, Кевин Чэпмен, Джим Краббе
Актеры: Уиллем Дефо, Эми Смарт, Мэтт Диллон, Крис Маркетт, Том Беренджер, Нил МакДонаф, Дж.Д. Эвермор, Кристофер Денэм, Кевин Чэпмен, Билл Дьюк
Описание фильма:
Фильм снят по реальным событиям. Расследование детектива Бада Картера приводит к аресту Джесси Вейланда, наемного убийцы из преступного синдиката. Вейланд осознает, что попав в тюрьму, он потеряет свою семью, и решает довериться Картеру, став его информатором.
Рейтинг MPAA: R (лицам до 17 лет обязательно присутствие взрослого)
Возраст: 16+

Дата мировой премьеры: 10 марта 2014
Продолжительность: 01:44:21
Качество видео: BDRip (720p)
Видеокодек: MPEG-4 AVC/H.264
Битрейт видео: ~5174 Kbps
Размер кадра: 1280х720, 23.976 fps
Аудио #1: AC3, 48.0 KHz, 6 ch, 384 Kbps, CBR (Русский, Многоголосый закадровый)
Аудио #2: AC3, 48.0 KHz, 6 ch, 640 Kbps, CBR (Английский)

MediaInfo:

Формат                                   : Matroska
Версия формата                           : Version 4 / Version 2
Размер файла                             : 4,61 Гбайт
Продолжительность                        : 1 ч. 44 м.
Общий поток                              : 6324 Кбит/сек
Название фильма                          : Bad Country
Дата кодирования                         : UTC 2014-03-16 09:38:12
Программа кодирования                    : mkvmerge v6.8.0 ('Theme for Great Cities') 64bit built on Mar  2 2014 21:34:26
Библиотека кодирования                   : libebml v1.3.0 + libmatroska v1.4.1
Видео
Идентификатор                            : 1
Формат                                   : AVC
Формат/Информация                        : Advanced Video Codec
Профиль формата                          : [url=mailto:High@L4.1]High@L4.1[/url]
Параметр CABAC формата                   : Да
Параметр ReFrames формата                : 5 кадров
Идентификатор кодека                     : V_MPEG4/ISO/AVC
Продолжительность                        : 1 ч. 44 м.
Битрейт                                  : 5174 Кбит/сек
Ширина                                   : 1280 пикселей
Высота                                   : 720 пикселей
Соотношение сторон                       : 16:9
Режим частоты кадров                     : Постоянный
Частота кадров                           : 23,976 кадра/сек
Цветовое пространство                    : YUV
Субдискретизация насыщенности            : 4:2:0
Битовая глубина                          : 8 бит
Тип развёртки                            : Прогрессивная
Бит/(Пиксели*Кадры)                      : 0.234
Размер потока                            : 3,77 Гбайт (82%)
Язык                                     : English
Default                                  : Да
Forced                                   : Нет
Аудио #1
Идентификатор                            : 2
Формат                                   : AC-3
Формат/Информация                        : Audio Coding 3
Расширение режима                        : CM (complete main)
Параметр Endianness формата              : Big
Идентификатор кодека                     : A_AC3
Продолжительность                        : 1 ч. 44 м.
Вид битрейта                             : Постоянный
Битрейт                                  : 384 Кбит/сек
Каналы                                   : 6 каналов
Расположение каналов                     : Front: L C R, Side: L R, LFE
Частота                                  : 48,0 КГц
Битовая глубина                          : 16 бит
Метод сжатия                             : С потерями
Размер потока                            : 287 Мбайт (6%)
Язык                                     : Russian
Default                                  : Да
Forced                                   : Нет
Аудио #2
Идентификатор                            : 3
Формат                                   : AC-3
Формат/Информация                        : Audio Coding 3
Расширение режима                        : CM (complete main)
Параметр Endianness формата              : Big
Идентификатор кодека                     : A_AC3
Продолжительность                        : 1 ч. 44 м.
Вид битрейта                             : Постоянный
Битрейт                                  : 640 Кбит/сек
Каналы                                   : 6 каналов
Расположение каналов                     : Front: L C R, Side: L R, LFE
Частота                                  : 48,0 КГц
Битовая глубина                          : 16 бит
Метод сжатия                             : С потерями
Задержка видео                           : 27 мс.
Размер потока                            : 478 Мбайт (10%)
Язык                                     : English
Default                                  : Нет
Forced                                   : Нет
Текст #1
Идентификатор                            : 4
Формат                                   : UTF-8
Идентификатор кодека                     : S_TEXT/UTF8
Идентификатор кодека/Информация          : UTF-8 Plain Text
Язык                                     : Ukrainian
Default                                  : Нет
Forced                                   : Нет
Текст #2
Идентификатор                            : 5
Формат                                   : UTF-8
Идентификатор кодека                     : S_TEXT/UTF8
Идентификатор кодека/Информация          : UTF-8 Plain Text
Язык                                     : English
Default                                  : Нет
Forced                                   : Нет
Меню
00:00:00.000                             : en:00:00:00.000
00:07:08.094                             : en:00:07:08.094
00:12:23.409                             : en:00:12:23.409
00:17:25.962                             : en:00:17:25.962
00:25:57.681                             : en:00:25:57.681
00:30:55.979                             : en:00:30:55.979
00:39:20.567                             : en:00:39:20.567
00:46:28.202                             : en:00:46:28.202
00:53:10.479                             : en:00:53:10.479
00:58:37.723                             : en:00:58:37.723
01:02:18.944                             : en:01:02:18.944
01:09:40.510                             : en:01:09:40.510
01:16:09.690                             : en:01:16:09.690
01:21:41.021                             : en:01:21:41.021
01:27:55.812                             : en:01:27:55.812
01:35:38.733                             : en:01:35:38.733
Скриншоты:

[Цитировать]



Показать сообщения:    

Текущее время: 07-Дек 11:45

Часовой пояс: UTC + 3


Вы не можете начинать темы
Вы не можете отвечать на сообщения
Вы не можете редактировать свои сообщения
Вы не можете удалять свои сообщения
Вы не можете голосовать в опросах
Вы не можете прикреплять файлы к сообщениям
Вы не можете скачивать файлы

!ВНИМАНИЕ!
Сайт не предоставляет электронные версии произведений, а занимается лишь коллекционированием и каталогизацией ссылок, присылаемых и публикуемых на форуме нашими читателями. Если вы являетесь правообладателем какого-либо представленного материала и не желаете, чтобы ссылка на него находилась в нашем каталоге, свяжитесь с нами, и мы незамедлительно удалим ее. Файлы для обмена на трекере предоставлены пользователями сайта, и администрация не несет ответственности за их содержание. Просьба не заливать файлы, защищенные авторскими правами, а также файлы нелегального содержания!