[ Сегодня идет свободное скачивание без начисления Download ]


Статистика раздачи
Нет
 
   
 
Top  
 
 
-Хоббит: Пустошь Смауга / The Hobbit: The Desolation of Smaug (2013) BDRip
«Beyond darkness... beyond desolation... lies the greatest danger of all»
- Год выпуска: 2013
Производство: США, Новая Зеландия / Metro-Goldwyn-Mayer (MGM)
Жанр: Фэнтези, приключения
Описание фильма:
Продолжение путешествия хоббита Бильбо Бэггинса, волшебника Гэндальфа и 13 отважных гномов. Их компания обязана завершить своё путешествие к Одинокой горе. Там они должны встретиться с величайшей опасностью из всех — созданием куда более ужасающим, чем все их прошлые противники, которое проверит на прочность не только их мужество, но крепость их дружбы и правильность выбранного пути, — драконом Смаугом.
Режиссер: Питер Джексон / Peter Jackson
Продюсер: Кэролинн Каннингэм, Питер Джексон, Фрэнсис Уолш
Актеры: Мартин Фриман, Ричард Армитедж, Иэн МакКеллен, Эванджелин Лилли, Орландо Блум, Люк Эванс, Бенедикт Камбербэтч, Ли Пейс, Кен Стотт, Эйдан Тернер
Язык: Русский, английский
Перевод: Дублированный [чистый звук]
Вид субтитров: Вшитые отключаемые
Язык субтитров: Русский, английский (full, SDH)

Дата мировой премьеры: 2 декабря 2013
Дата российской премьеры: 18 декабря 2013, «Каро-Премьер»
Дата выхода DVD релиза: 17 апреля 2014, «CP Дистрибуция»
Дата выхода Blu-Ray релиза: 17 апреля 2014, «CP Дистрибуция»
Рейтинг MPAA: PG-13
Возраст: 12+
Продолжительность: 02:41:17
Качество видео: BDRip [CHD]
Видео: MPEG4_AVC/H.264, 1920x800 (2.40:1), ~11057 kbps, 23.976 fps
Аудио 1: AC3 2.0, 384 kbps, 48 kHz [Русский - дублированный]
Аудио 2: DTS 5.1, 1536 kbps, 48 kHz [Английский - оригинал]

x264 log

x264 [info]: frame I:2521 Avg QP:13.20 size:232285
x264 [info]: frame P:73207 Avg QP:15.52 size: 92757
x264 [info]: frame B:156288 Avg QP:17.57 size: 38350

MediaInfo]

Полное имя : D:\Хоббит.Пустошь.Смауга-The.Hobbit.The.Desolation.of.Smaug.(2013).BDRip.[1080p].mkv
Формат : Matroska
Версия формата : Version 2
Размер файла : 14,6 Гбайт
Продолжительность : 2 ч. 41 м.
Общий поток : 12,9 Мбит/сек
Название фильма : The Hobbit: The Desolation of Smaug (2013)
Дата кодирования : UTC 2014-03-21 15:40:28
Программа кодирования : mkvmerge v5.7.0 ('The Whirlwind') built on Aug 7 2012 14:11:40
Библиотека кодирования : libebml v1.2.3 + libmatroska v1.3.0
Attachment : Yes
Видео
Идентификатор : 1
Формат : AVC
Формат/Информация : Advanced Video Codec
Профиль формата : High@L4.1
Параметр CABAC формата : Да
Параметр ReFrames формата : 5 кадров
Идентификатор кодека : V_MPEG4/ISO/AVC
Продолжительность : 2 ч. 41 м.
Битрейт : 11,1 Мбит/сек
Ширина : 1920 пикселей
Высота : 800 пикселей
Соотношение сторон : 2,40:1
Режим частоты кадров : Постоянный
Частота кадров : 23,976 кадра/сек
Цветовое пространство : YUV
Субдискретизация насыщенности : 4:2:0
Битовая глубина : 8 бит
Тип развёртки : Прогрессивная
Бит/(Пиксели*Кадры) : 0.300
Размер потока : 12,2 Гбайт (83%)
Заголовок : Хоббит.Пустошь.Смауга-The.Hobbit.The.Desolation.of.Smaug.(2013).BDRip.[1080p]
Библиотека кодирования : x264 core 138 r2356 a1d3d17
Настройки программы : cabac=1 / ref=5 / deblock=1:-3:-3 / analyse=0x3:0x113 / me=umh / subme=10 / psy=1 / psy_rd=1.00:0.05 / mixed_ref=1 / me_range=32 / chroma_me=1 / trellis=2 / 8x8dct=1 / cqm=0 / deadzone=21,11 / fast_pskip=0 / chroma_qp_offset=-2 / threads=18 / lookahead_threads=1 / sliced_threads=0 / nr=0 / decimate=1 / interlaced=0 / bluray_compat=0 / constrained_intra=0 / bframes=4 / b_pyramid=2 / b_adapt=2 / b_bias=0 / direct=3 / weightb=1 / open_gop=0 / weightp=2 / keyint=250 / keyint_min=23 / scenecut=40 / intra_refresh=0 / rc=2pass / mbtree=0 / bitrate=11057 / ratetol=1.0 / qcomp=0.70 / qpmin=0 / qpmax=69 / qpstep=4 / cplxblur=20.0 / qblur=0.5 / ip_ratio=1.40 / pb_ratio=1.30 / aq=2:1.00
Язык : English
Default : Да
Forced : Нет
Аудио #1
Идентификатор : 2
Формат : AC-3
Формат/Информация : Audio Coding 3
Расширение режима : CM (complete main)
Параметр Endianness формата : Big
Идентификатор кодека : A_AC3
Продолжительность : 2 ч. 41 м.
Вид битрейта : Постоянный
Битрейт : 384 Кбит/сек
Каналы : 2 канала
Расположение каналов : Front: L R
Частота : 48,0 КГц
Битовая глубина : 16 бит
Метод сжатия : С потерями
Размер потока : 443 Мбайт (3%)
Заголовок : AC3 2.0 / 384 kbps / Dub
Язык : Russian
Default : Да
Forced : Нет
Аудио #2
Идентификатор : 3
Формат : DTS
Формат/Информация : Digital Theater Systems
Идентификатор кодека : A_DTS
Продолжительность : 2 ч. 41 м.
Вид битрейта : Постоянный
Битрейт : 1510 Кбит/сек
Каналы : 6 каналов
Расположение каналов : Front: L C R, Side: L R, LFE
Частота : 48,0 КГц
Битовая глубина : 24 бит
Метод сжатия : С потерями
Размер потока : 1,70 Гбайт (12%)
Заголовок : DTS 5.1 / 1536 kbps / Original
Язык : English
Default : Нет
Forced : Нет
Текст #1
Идентификатор : 4
Формат : UTF-8
Идентификатор кодека : S_TEXT/UTF8
Идентификатор кодека/Информация : UTF-8 Plain Text
Заголовок : Full (Notabenoid)
Язык : Russian
Default : Нет
Forced : Нет
Текст #2
Идентификатор : 5
Формат : UTF-8
Идентификатор кодека : S_TEXT/UTF8
Идентификатор кодека/Информация : UTF-8 Plain Text
Заголовок : Full
Язык : English
Default : Нет
Forced : Нет
Текст #3
Идентификатор : 6
Формат : UTF-8
Идентификатор кодека : S_TEXT/UTF8
Идентификатор кодека/Информация : UTF-8 Plain Text
Заголовок : SDH
Язык : English
Default : Нет
Forced : Нет
Меню
00:00:00.000 : en:00:00:00.000
00:05:44.094 : en:00:05:44.094
00:10:10.985 : en:00:10:10.985
00:11:10.128 : en:00:11:10.128
00:13:50.204 : en:00:13:50.204
00:17:12.657 : en:00:17:12.657
00:21:25.326 : en:00:21:25.326
00:24:33.472 : en:00:24:33.472
00:33:03.273 : en:00:33:03.273
00:36:05.747 : en:00:36:05.747
00:39:38.960 : en:00:39:38.960
00:41:29.654 : en:00:41:29.654
00:44:27.290 : en:00:44:27.290
00:55:01.757 : en:00:55:01.757
00:58:41.768 : en:00:58:41.768
01:02:05.138 : en:01:02:05.138
01:05:29.592 : en:01:05:29.592
01:09:06.267 : en:01:09:06.267
01:11:29.118 : en:01:11:29.118
01:13:11.762 : en:01:13:11.762
01:19:14.959 : en:01:19:14.959
01:20:48.469 : en:01:20:48.469
01:23:12.529 : en:01:23:12.529
01:27:09.641 : en:01:27:09.641
01:30:45.482 : en:01:30:45.482
01:33:29.813 : en:01:33:29.813
01:41:57.194 : en:01:41:57.194
01:42:24.472 : en:01:42:24.472
01:44:08.033 : en:01:44:08.033
01:47:34.114 : en:01:47:34.114
01:56:46.333 : en:01:56:46.333
01:57:28.917 : en:01:57:28.917
01:58:03.410 : en:01:58:03.410
01:59:42.300 : en:01:59:42.300
02:01:30.575 : en:02:01:30.575
02:04:04.312 : en:02:04:04.312
02:07:58.462 : en:02:07:58.462
02:09:43.109 : en:02:09:43.109
02:10:58.642 : en:02:10:58.642
02:12:31.443 : en:02:12:31.443
02:13:54.318 : en:02:13:54.318
02:16:25.427 : en:02:16:25.427
02:18:51.490 : en:02:18:51.490
02:26:03.588 : en:02:26:03.588
02:30:51.209 : en:02:30:51.209
Скриншоты:


Время раздачи: 24/7 (до 10 скачавших)

[Цитировать]



Показать сообщения:    

Текущее время: 11-Дек 10:57

Часовой пояс: UTC + 3


Вы не можете начинать темы
Вы не можете отвечать на сообщения
Вы не можете редактировать свои сообщения
Вы не можете удалять свои сообщения
Вы не можете голосовать в опросах
Вы не можете прикреплять файлы к сообщениям
Вы не можете скачивать файлы

!ВНИМАНИЕ!
Сайт не предоставляет электронные версии произведений, а занимается лишь коллекционированием и каталогизацией ссылок, присылаемых и публикуемых на форуме нашими читателями. Если вы являетесь правообладателем какого-либо представленного материала и не желаете, чтобы ссылка на него находилась в нашем каталоге, свяжитесь с нами, и мы незамедлительно удалим ее. Файлы для обмена на трекере предоставлены пользователями сайта, и администрация не несет ответственности за их содержание. Просьба не заливать файлы, защищенные авторскими правами, а также файлы нелегального содержания!