[ Сегодня идет свободное скачивание без начисления Download ]


Статистика раздачи
Нет
 
   
 
Top  
 
 
-Хоббит: Пустошь Смауга / The Hobbit: The Desolation of Smaug (2013) BDRip [1080p] «Beyond darkness... beyond desolation... lies the greatest danger of all»- Год выпуска: 2013
Производство: США, Новая Зеландия
Жанр: Фэнтези, Приключения
Перевод: Дублированный - центральный канал с линии
Вид субтитров: Вшитые отключаемые
Язык субтитров: Русский, английский
Режиссер: Питер Джексон
Продюсер: Кэролинн Каннингэм, Питер Джексон, Фрэнсис Уолш
Актеры: Мартин Фриман, Иэн МакКеллен, Ричард Армитедж, Джеймс Несбитт, Кен Стотт, Грэм МакТавиш, Уильям Кирчер, Стивен Хантер, Дин О Горман, Эйдан Тернер
Описание фильма:
Продолжение путешествия хоббита Бильбо Бэггинса, волшебника Гэндальфа и 13 отважных гномов. Их компания обязана завершить своё путешествие к Одинокой горе. Там они должны встретиться с величайшей опасностью из всех — созданием куда более ужасающим, чем все их прошлые противники, которое проверит на прочность не только их мужество, но крепость их дружбы и правильность выбранного пути, — драконом Смаугом.-
Дата мировой премьеры: 2 декабря 2013
Дата российской премьеры: 18 декабря 2013, «Каро-Премьер»
Дата выхода DVD релиза: 17 апреля 2014, «CP Дистрибуция»
Дата выхода Blu-Ray релиза: 17 апреля 2014, «CP Дистрибуция»-Продолжительность: 02:41:17
Качество видео: BDRip
Видеокодек: MPEG-4 AVC/H.264
Битрейт видео: ~11,5 Mbps
Размер кадра: 1920 X 1080, 23.976 fps
Аудио :
1: AC3 5.1, 384 kbps, 48 kHz [Русский - Дублированный - центральный канал с линии]
2: AC3 2.0, 386 kbps, 48 kHz [Русский - дубляж с линии]
3: AC3 5.1, 640 kbps, 48 kHz [Английский - оригинал]

MediaInfo:

Общее
Уникальный идентификатор : 246972079249540485666739294518149507870 (0xB9CD17A00489CB5DACDEF6D1C5F9EB1E)
Полное имя :\The.Hobbit.The.Desolation.of.Smaug.2013.3D.BDrip.Half OverUnder.1080p.mkv
Формат : Matroska
Версия формата : Version 3 / Version 2
Размер файла : 14,9 Гбайт
Продолжительность : 2 ч. 41 м.
Общий поток : 13,2 Мбит/сек
Название фильма : The.Hobbit.The.Desolation.of.Smaug.2013.3D.BluRay.Half OverUnder.1080p
Дата кодирования : UTC 2014-03-22 19:55:04
Программа кодирования : mkvmerge v5.8.0 ('No Sleep / Pillow') built on Sep 2 2012 15:37:04
Библиотека кодирования : libebml v1.2.3 + libmatroska v1.3.0
Видео
Идентификатор : 1
Формат : AVC
Формат/Информация : Advanced Video Codec
Профиль формата : High@L4.1
MultiView_Count : 2
MultiView_Layout : Top-Bottom (left eye first)
Параметр CABAC формата : Да
Параметр ReFrames формата : 2 кадра
Идентификатор кодека : V_MPEG4/ISO/AVC
Продолжительность : 2 ч. 41 м.
Битрейт : 11,5 Мбит/сек
Ширина : 1920 пикселей
Высота : 1080 пикселей
Соотношение сторон : 16:9
Режим частоты кадров : Постоянный
Частота кадров : 23,976 кадра/сек
Цветовое пространство : YUV
Субдискретизация насыщенности : 4:2:0
Битовая глубина : 8 бит
Тип развёртки : Прогрессивная
Бит/(Пиксели*Кадры) : 0.232
Размер потока : 13,0 Гбайт (87%)
Заголовок : The.Hobbit.The.Desolation.of.Smaug.2013.3D.BluRay.Half OverUnder.1080p
Библиотека кодирования : x264 core
Язык : English
Default : Да
Forced : Нет
Основные цвета : BT.709
Характеристики трансфера : BT.709
Коэффициенты матрицы : BT.709
Аудио #1
Идентификатор : 2
Формат : AC-3
Формат/Информация : Audio Coding 3
Расширение режима : CM (complete main)
Параметр Endianness формата : Big
Идентификатор кодека : A_AC3
Продолжительность : 2 ч. 41 м.
Вид битрейта : Постоянный
Битрейт : 384 Кбит/сек
Каналы : 6 каналов
Расположение каналов : Front: L C R, Side: L R, LFE
Частота : 48,0 КГц
Битовая глубина : 16 бит
Метод сжатия : С потерями
Размер потока : 443 Мбайт (3%)
Заголовок : Дубляж (центр с линии)
Язык : Russian
Default : Да
Forced : Нет
Аудио #2
Идентификатор : 3
Формат : AC-3
Формат/Информация : Audio Coding 3
Расширение режима : CM (complete main)
Параметр Endianness формата : Big
Идентификатор кодека : A_AC3
Продолжительность : 2 ч. 41 м.
Вид битрейта : Постоянный
Битрейт : 384 Кбит/сек
Каналы : 2 канала
Расположение каналов : Front: L R
Частота : 48,0 КГц
Битовая глубина : 16 бит
Метод сжатия : С потерями
Размер потока : 443 Мбайт (3%)
Заголовок : Дубляж (с линии)
Язык : Russian
Default : Нет
Forced : Нет
Аудио #3
Идентификатор : 4
Формат : AC-3
Формат/Информация : Audio Coding 3
Расширение режима : CM (complete main)
Параметр Endianness формата : Big
Идентификатор кодека : A_AC3
Продолжительность : 2 ч. 41 м.
Вид битрейта : Постоянный
Битрейт : 640 Кбит/сек
Каналы : 6 каналов
Расположение каналов : Front: L C R, Side: L R, LFE
Частота : 48,0 КГц
Битовая глубина : 16 бит
Метод сжатия : С потерями
Размер потока : 739 Мбайт (5%)
Язык : English
Default : Нет
Forced : Нет
Текст #1
Идентификатор : 5
Формат : UTF-8
Идентификатор кодека : S_TEXT/UTF8
Идентификатор кодека/Информация : UTF-8 Plain Text
Язык : Russian
Default : Нет
Forced : Нет
Текст #2
Идентификатор : 6
Формат : UTF-8
Идентификатор кодека : S_TEXT/UTF8
Идентификатор кодека/Информация : UTF-8 Plain Text
Язык : English
Default : Нет
Forced : Нет
Меню
00:00:00.000 : :Chapter 01
00:05:44.093 : :Chapter 02
00:10:10.985 : :Chapter 03
00:11:10.127 : :Chapter 04
00:13:50.204 : :Chapter 05
00:17:12.656 : :Chapter 06
00:21:25.325 : :Chapter 07
00:24:33.471 : :Chapter 08
00:33:03.272 : :Chapter 09
00:36:05.746 : :Chapter 10
00:39:38.959 : :Chapter 11
00:41:29.653 : :Chapter 12
00:44:27.289 : :Chapter 13
00:55:01.756 : :Chapter 14
00:58:41.768 : :Chapter 15
01:02:05.138 : :Chapter 16
01:05:29.592 : :Chapter 17
01:09:06.267 : :Chapter 18
01:11:29.118 : :Chapter 19
01:13:11.762 : :Chapter 20
01:19:14.958 : :Chapter 21
01:20:48.468 : :Chapter 22
01:23:12.529 : :Chapter 23
01:27:09.641 : :Chapter 24
01:30:45.481 : :Chapter 25
01:33:29.812 : :Chapter 26
01:41:57.194 : :Chapter 27
01:42:24.471 : :Chapter 28
01:44:08.033 : :Chapter 29
01:47:34.114 : :Chapter 30
01:56:46.332 : :Chapter 31
01:57:28.916 : :Chapter 32
01:58:03.409 : :Chapter 33
01:59:42.300 : :Chapter 34
02:01:30.574 : :Chapter 35
02:04:04.311 : :Chapter 36
02:07:58.462 : :Chapter 37
02:09:43.108 : :Chapter 38
02:10:58.642 : :Chapter 39
02:12:31.443 : :Chapter 40
02:13:54.317 : :Chapter 41
02:16:25.427 : :Chapter 42
02:18:51.489 : :Chapter 43
02:26:03.588 : :Chapter 44
02:30:51.208 : :Chapter 45

Знаете ли вы, что...

• Фильм снят по мотивам повести Джона Рональда Руэла Толкина «Хоббит, или Туда и обратно» (The Hobbit, or There and Back Again, 1937).
• У Леголаса течет кровь из носа после схватки с Болгом. Он никогда «раньше» не был ранен в трилогии фильмов «Властелин колец».
• Трон короля эльфов украшает пара рогов большерогих оленей.
• Джеф Брофи снялся в фильмах «Хоббит: Нежданное путешествие» (2012) и «Хоббит: Пустошь Смауга» (2013) в роли Нори. А его сын Сэдвин Брофи снялся в роли Элдариона в фильме «Властелин колец: Возвращение короля» (2003).
• Роберт Казински был взят на роль Фили, и с ним даже было отснято несколько сцен, но затем, примерно через месяц после начала съемок, он покинул проект и вернулся в Англию по личным причинам. В итоге роль досталась Дину О’Горману.
• Мартин Фриман и Бенедикт Камбербатч снимались в перерывах съемок сериала «Шерлок» (2010). Стивен Фрай сыграл брата Шерлока, Майкрофта, в фильме «Шерлок Холмс: Игра теней» (2011), а Кристофер Ли сыграл Шерлока в фильме «Шерлок Холмс и звезда оперетты» (1991), сэра Генри Баскервиля в фильме «Собака Баскервилей» (1959) и Майкрофта в фильме «Частная жизнь Шерлока Холмса» (1970), в котором в роли Шерлока снялся Роберт Стивенс (озвучивавший Арагорна на радио BBC).
• Орландо Блум на два года старше, чем Ли Пейс, который играет его отца, короля Трандуила.
• По словам сценариста Филиппы Бойенс, Тауриэль является оригинальным персонажем, написанным специально для фильма: «Мы создали ее, чтобы привнести в фильм женскую энергию. И мы считаем, что это абсолютно в духе Толкина».
• Остальные факты на kinopoisk.ru.
Скриншоты:




Время раздачи: круглогодично

[Цитировать]



Показать сообщения:    

Текущее время: 07-Дек 15:36

Часовой пояс: UTC + 3


Вы не можете начинать темы
Вы не можете отвечать на сообщения
Вы не можете редактировать свои сообщения
Вы не можете удалять свои сообщения
Вы не можете голосовать в опросах
Вы не можете прикреплять файлы к сообщениям
Вы не можете скачивать файлы

!ВНИМАНИЕ!
Сайт не предоставляет электронные версии произведений, а занимается лишь коллекционированием и каталогизацией ссылок, присылаемых и публикуемых на форуме нашими читателями. Если вы являетесь правообладателем какого-либо представленного материала и не желаете, чтобы ссылка на него находилась в нашем каталоге, свяжитесь с нами, и мы незамедлительно удалим ее. Файлы для обмена на трекере предоставлены пользователями сайта, и администрация не несет ответственности за их содержание. Просьба не заливать файлы, защищенные авторскими правами, а также файлы нелегального содержания!