[ Сегодня идет свободное скачивание без начисления Download ]


Статистика раздачи
Нет
 
   
 
Top  
 
 
-47 ронинов / 47 Ronin (2013) BDRip [1080p]«Таинственный странник избранный судьбой»- Год выпуска: 2013
Производство: США
Жанр: Фэнтези, боевик, приключения
Перевод: Дублированный (центральный канал с линии)
Язык субтитров: Русский, Английский
Режиссер: Карл Ринш
Продюсер: Памела Эбди, Эрик МакЛеод, Крис Фентон
Актеры: Киану Ривз, Хироюки Санада, Ко Сибасаки, Таданобу Асано, Ринко Кикути, Кэри-Хироюки Тагава, Того Игава
Описание фильма:
Таинственный странник, преданный всеми, проданный в рабство, избранный судьбой вершить месть, станет одним из 47 воинов, бросивших вызов смерти. Явившись из другого мира, он восстанет против темных сил, чтобы защитить свою запретную любовь.-
Дата мировой премьеры: 6 декабря 2013
Дата российской премьеры: 1 января 2014, «UPI»
Дата выхода DVD релиза: 24 апреля 2014, «Двадцатый Век Фокс СНГ»
Дата выхода Blu-Ray релиза: 24 апреля 2014, «Двадцатый Век Фокс СНГ»
Рейтинг MPAA: PG-13 (детям до 13 лет просмотр не желателен)
Возраст: 12+-Релиз от:
Продолжительность: 01:58:43
Качество видео: BDRip ([email protected])
Видеокодек: MPEG-4 AVC/H.264
Битрейт видео: ~8940 Kbps
Размер кадра: 1920x800, 23.976 fps
Аудио #1: DTS, 48.0 KHz, 6 ch, 1536 Kbps, CBR (Русский, Дубляж - центр с линии)
Аудио #2: AC3, 48.0 KHz, 2 ch, 256 Kbps, CBR (Русский, Дубляж - с линии)
Аудио #3: DTS, 48.0 KHz, 6 ch, 1510 Kbps, CBR (Английский)

h.264 log:

x264 [info]: frame I:1892 Avg QP:14.79 size:243498
x264 [info]: frame P:51101 Avg QP:16.84 size: 74525
x264 [info]: frame B:117790 Avg QP:19.30 size: 31261

MediaInfo:

Общее
Уникальный идентификатор : 185460265527646308006804846429200775903 (0x8B86590F258DA2A9BB45AAE00A18FADF)
Полное имя : \47.Ronin.2013.BluRay.1080p.DTS.x264-NNM-CLUB.mkv
Формат : Matroska
Версия формата : Version 2
Размер файла : 10,1 Гбайт
Продолжительность : 1 ч. 58 м.
Общий поток : 12,2 Мбит/сек
Название фильма : 47.Ronin.2013.BluRay.1080p.DTS.x264-NNM-CLUB
Дата кодирования : UTC 2014-03-23 18:36:26
Программа кодирования : mkvmerge v5.8.0 ('No Sleep / Pillow') built on Sep 2 2012 15:37:04
Библиотека кодирования : libebml v1.2.3 + libmatroska v1.3.0
Видео
Идентификатор : 1
Формат : AVC
Формат/Информация : Advanced Video Codec
Профиль формата : [email protected]
Параметр CABAC формата : Да
Параметр ReFrames формата : 5 кадров
Идентификатор кодека : V_MPEG4/ISO/AVC
Продолжительность : 1 ч. 58 м.
Битрейт : 8940 Кбит/сек
Ширина : 1920 пикселей
Высота : 800 пикселей
Соотношение сторон : 2,40:1
Режим частоты кадров : Постоянный
Частота кадров : 23,976 кадра/сек
Цветовое пространство : YUV
Субдискретизация насыщенности : 4:2:0
Битовая глубина : 8 бит
Тип развёртки : Прогрессивная
Бит/(Пиксели*Кадры) : 0.243
Размер потока : 7,21 Гбайт (71%)
Заголовок : 47.Ronin.2013.BluRay.1080p.DTS.x264-NNM-CLUB
Библиотека кодирования : x264 core 138 r2358 9e941d1
Настройки программы : cabac=1 / ref=5 / deblock=1:-3:-3 / analyse=0x3:0x113 / me=umh / subme=10 / psy=1 / psy_rd=1.00:0.05 / mixed_ref=1 / me_range=32 / chroma_me=1 / trellis=2 / 8x8dct=1 / cqm=0 / deadzone=21,11 / fast_pskip=0 / chroma_qp_offset=-2 / threads=12 / lookahead_threads=1 / sliced_threads=0 / nr=0 / decimate=1 / interlaced=0 / bluray_compat=0 / constrained_intra=0 / bframes=4 / b_pyramid=2 / b_adapt=2 / b_bias=0 / direct=3 / weightb=1 / open_gop=0 / weightp=2 / keyint=250 / keyint_min=23 / scenecut=40 / intra_refresh=0 / rc=2pass / mbtree=0 / bitrate=8940 / ratetol=1.0 / qcomp=0.70 / qpmin=0 / qpmax=69 / qpstep=4 / cplxblur=20.0 / qblur=0.5 / ip_ratio=1.40 / pb_ratio=1.30 / aq=2:1.00
Язык : English
Default : Да
Forced : Нет
Аудио #1
Идентификатор : 2
Формат : DTS
Формат/Информация : Digital Theater Systems
Режим : 16
Параметр Endianness формата : Big
Идентификатор кодека : A_DTS
Продолжительность : 1 ч. 58 м.
Вид битрейта : Постоянный
Битрейт : 1510 Кбит/сек
Каналы : 6 каналов
Расположение каналов : Front: L C R, Side: L R, LFE
Частота : 48,0 КГц
Битовая глубина : 24 бит
Метод сжатия : С потерями
Размер потока : 1,25 Гбайт (12%)
Заголовок : Дубляж (центр с линии)
Язык : Russian
Default : Да
Forced : Нет
Аудио #2
Идентификатор : 3
Формат : AC-3
Формат/Информация : Audio Coding 3
Расширение режима : CM (complete main)
Параметр Endianness формата : Big
Идентификатор кодека : A_AC3
Продолжительность : 1 ч. 58 м.
Вид битрейта : Постоянный
Битрейт : 256 Кбит/сек
Каналы : 2 канала
Расположение каналов : Front: L R
Частота : 48,0 КГц
Битовая глубина : 16 бит
Метод сжатия : С потерями
Размер потока : 217 Мбайт (2%)
Заголовок : Дубляж (слинии)
Язык : Russian
Default : Нет
Forced : Нет
Аудио #3
Идентификатор : 4
Формат : DTS
Формат/Информация : Digital Theater Systems
Режим : 16
Параметр Endianness формата : Big
Идентификатор кодека : A_DTS
Продолжительность : 1 ч. 58 м.
Вид битрейта : Постоянный
Битрейт : 1509 Кбит/сек
Каналы : 6 каналов
Расположение каналов : Front: L C R, Side: L R, LFE
Частота : 48,0 КГц
Битовая глубина : 24 бит
Метод сжатия : С потерями
Размер потока : 1,25 Гбайт (12%)
Язык : English
Default : Нет
Forced : Нет
Текст #1
Идентификатор : 5
Формат : UTF-8
Идентификатор кодека : S_TEXT/UTF8
Идентификатор кодека/Информация : UTF-8 Plain Text
Язык : Russian
Default : Нет
Forced : Нет
Текст #2
Идентификатор : 6
Формат : UTF-8
Идентификатор кодека : S_TEXT/UTF8
Идентификатор кодека/Информация : UTF-8 Plain Text
Язык : English
Default : Нет
Forced : Нет
Меню
00:00:00.000 : en:00:00:00.000
00:04:27.559 : en:00:04:27.559
00:11:12.088 : en:00:11:12.088
00:16:27.820 : en:00:16:27.820
00:20:11.836 : en:00:20:11.836
00:26:52.319 : en:00:26:52.319
00:31:02.944 : en:00:31:02.944
00:36:10.627 : en:00:36:10.627
00:43:36.614 : en:00:43:36.614
00:50:14.511 : en:00:50:14.511
00:54:59.421 : en:00:54:59.421
00:59:54.049 : en:00:59:54.049
01:09:57.735 : en:01:09:57.735
01:13:59.018 : en:01:13:59.018
01:19:12.247 : en:01:19:12.247
01:24:17.386 : en:01:24:17.386
01:33:00.825 : en:01:33:00.825
01:38:55.555 : en:01:38:55.555
01:44:41.609 : en:01:44:41.609
01:48:38.303 : en:01:48:38.303

Знаете ли вы, что...

• По словам художника по костюмам Пенни Роуз, у всех были костюмы, подогнанные в соответствии с фоном: «Основываясь на культуре, форма одежды должна была быть одной — кимоно, но мы совершили своего рода «модный» переворот в этом направлении и добавили различных цветов».
• По словам Киану Ривза, специально ради актеров второго плана съемки сначала проходили на японском и уже затем на английском языке.
• Это режиссерский дебют Карла Ринша.
• Стрелы для фильма были сделаны известным европейским мастером Майклом Рипом (Michael Reape). Небольшое количество стрел было выполнено в «музейном» качестве для съемки крупным планом.
• Вместе с Киану Ривзом роли были отданы пяти японским актерам (Хироюки Санада, Таданобу Асано, Ринко Кикути, Ко Шибасаки и Джин Аканиши), чтобы сделать историю более достоверной, вместо того, чтобы выбрать актеров, узнаваемых в США.
• Специально для фильма на съемочную площадку в Лондон из Италии привезли 300 побегов бамбука, каждый высотой по 15 метров, и метровые деревья бонсай возрастом более ста лет.
Скриншоты:


[Цитировать]



Показать сообщения:    

Текущее время: 06-Дек 19:05

Часовой пояс: UTC + 3


Вы не можете начинать темы
Вы не можете отвечать на сообщения
Вы не можете редактировать свои сообщения
Вы не можете удалять свои сообщения
Вы не можете голосовать в опросах
Вы не можете прикреплять файлы к сообщениям
Вы не можете скачивать файлы

!ВНИМАНИЕ!
Сайт не предоставляет электронные версии произведений, а занимается лишь коллекционированием и каталогизацией ссылок, присылаемых и публикуемых на форуме нашими читателями. Если вы являетесь правообладателем какого-либо представленного материала и не желаете, чтобы ссылка на него находилась в нашем каталоге, свяжитесь с нами, и мы незамедлительно удалим ее. Файлы для обмена на трекере предоставлены пользователями сайта, и администрация не несет ответственности за их содержание. Просьба не заливать файлы, защищенные авторскими правами, а также файлы нелегального содержания!