[ Сегодня идет свободное скачивание без начисления Download ]


Статистика раздачи
Нет
 
   
 
Top  
 
 
-Уцелевший / Lone Survivor (2013) BDRip [1080p] - Год выпуска: 2013
Производство: США
Жанр: Военный, Боевик, Драма
Режиссер: Питер Берг
Актеры: Марк Уолберг, Тейлор Китч, Эмиль Хирш, Бен Фостер, Юсуф Азами, Али Сулиман, Эрик Бана, Александр Людвиг, Рич Тинг, Дэн Билзериан
Описание фильма:
Афганистан, 2005 год. Команда американских спецназовцев получает задание обезвредить известного лидера талибов Ахмада Шаха. Попав в ловушку, солдаты принимают неравный кровопролитный бой, и все они погибают героями. Все, кроме одного. Для уцелевшего Маркуса Латтрела бой только начинается: он любой ценой должен выжить и пробраться к «своим». Когда почти всё потеряно, ему решается помочь Гулаб — мирный человек, ненавидящий войну.
Перевод: Дублированный
Субтитры: Вшитые отключаемые
Язык субтитров: Русский

Дата мировой премьеры: 12.11.2013
Дата российской премьеры: 20.02.2014
Дата выхода DVD релиза: 25.03.14
Продолжительность: 02:01:14
Качество видео: BDRip
Видео: 1920x804, 8110 Кбит/сек, MPEG4_AVC/H.264, High@L4.1, 2.40:1, 2pass
Аудио: AC-3, 640 Кбит/сек, 6 канала(ов), 48,0 КГц - Русский
Чаптеры (Главы): Есть
Сэмпл: Скачать

MediaInfo

Format                                   : Matroska
Format version                           : Version 2
File size                                : 7.40 GiB
Duration                                 : 2h 1mn
Overall bit rate                         : 8 741 Kbps
Movie name                               : Уцелевший.(2013).BDRip.1080p.[envy]
Encoded date                             : UTC 2014-03-23 09:00:55
Writing application                      : mkvmerge v5.8.0 ('No Sleep / Pillow') built on Sep  2 2012 15:37:04
Writing library                          : libebml v1.2.3 + libmatroska v1.3.0
Video
ID                                       : 1
Format                                   : AVC
Format/Info                              : Advanced Video Codec
Format profile                           : [url=mailto:High@L4.1]High@L4.1[/url]
Format settings, CABAC                   : Yes
Format settings, ReFrames                : 5 frames
Codec ID                                 : V_MPEG4/ISO/AVC
Duration                                 : 2h 1mn
Bit rate                                 : 8 110 Kbps
Width                                    : 1 920 pixels
Height                                   : 804 pixels
Display aspect ratio                     : 2.40:1
Frame rate mode                          : Constant
Frame rate                               : 24.000 fps
Color space                              : YUV
Chroma subsampling                       : 4:2:0
Bit depth                                : 8 bits
Scan type                                : Progressive
Bits/(Pixel*Frame)                       : 0.219
Stream size                              : 6.71 GiB (91%)
Title                                    : Уцелевший.(2013).BDRip.1080p.[envy]
Writing library                          : x264 core 140 r2377 1ca7bb9
Encoding settings                        : cabac=1 / ref=5 / deblock=1:-3:-2 / analyse=0x3:0x133 / me=umh / subme=11 / psy=1 / psy_rd=1.00:0.00 / mixed_ref=1 / me_range=48 / chroma_me=1 / trellis=2 / 8x8dct=1 / cqm=0 / deadzone=21,11 / fast_pskip=0 / chroma_qp_offset=-2 / threads=12 / lookahead_threads=1 / sliced_threads=0 / nr=0 / decimate=1 / interlaced=0 / bluray_compat=0 / constrained_intra=0 / bframes=6 / b_pyramid=2 / b_adapt=2 / b_bias=0 / direct=3 / weightb=1 / open_gop=0 / weightp=2 / keyint=240 / keyint_min=24 / scenecut=40 / intra_refresh=0 / rc=2pass / mbtree=0 / bitrate=8110 / ratetol=2.0 / qcomp=0.60 / qpmin=0 / qpmax=69 / qpstep=4 / cplxblur=20.0 / qblur=0.5 / ip_ratio=1.40 / pb_ratio=1.30 / aq=2:0.90
Language                                 : English
Default                                  : Yes
Forced                                   : No
Audio
ID                                       : 2
Format                                   : AC-3
Format/Info                              : Audio Coding 3
Mode extension                           : CM (complete main)
Format settings, Endianness              : Big
Codec ID                                 : A_AC3
Duration                                 : 2h 1mn
Bit rate mode                            : Constant
Bit rate                                 : 640 Kbps
Channel count                            : 6 channels
Channel positions                        : Front: L C R, Side: L R, LFE
Sampling rate                            : 48.0 KHz
Bit depth                                : 16 bits
Compression mode                         : Lossy
Stream size                              : 555 MiB (7%)
Title                                    : Dub
Language                                 : Russian
Default                                  : Yes
Forced                                   : No
Text
ID                                       : 3
Format                                   : UTF-8
Codec ID                                 : S_TEXT/UTF8
Codec ID/Info                            : UTF-8 Plain Text
Title                                    : rus full
Language                                 : Russian
Default                                  : No
Forced                                   : No
Menu
00:00:00.000                             : :Chapter 01
00:08:01.315                             : :Chapter 02
00:17:17.416                             : :Chapter 03
00:33:32.125                             : :Chapter 04
00:51:09.208                             : :Chapter 05
01:09:15.166                             : :Chapter 06
01:21:26.833                             : :Chapter 07
01:36:17.291                             : :Chapter 08
01:47:52.750                             : :Chapter 09
Скриншоты:

[Цитировать]



Показать сообщения:    

Текущее время: 08-Дек 08:56

Часовой пояс: UTC + 3


Вы не можете начинать темы
Вы не можете отвечать на сообщения
Вы не можете редактировать свои сообщения
Вы не можете удалять свои сообщения
Вы не можете голосовать в опросах
Вы не можете прикреплять файлы к сообщениям
Вы не можете скачивать файлы

!ВНИМАНИЕ!
Сайт не предоставляет электронные версии произведений, а занимается лишь коллекционированием и каталогизацией ссылок, присылаемых и публикуемых на форуме нашими читателями. Если вы являетесь правообладателем какого-либо представленного материала и не желаете, чтобы ссылка на него находилась в нашем каталоге, свяжитесь с нами, и мы незамедлительно удалим ее. Файлы для обмена на трекере предоставлены пользователями сайта, и администрация не несет ответственности за их содержание. Просьба не заливать файлы, защищенные авторскими правами, а также файлы нелегального содержания!