[ Сегодня идет свободное скачивание без начисления Download ]


Статистика раздачи
Нет
 
   
 
Top  
 
 
-Забойный реванш / Grudge Match (2013) BDRemux
«Когда возраст не имеет значения»
- Год выпуска: 2013
Производство: США / Warner Bros. Pictures
Жанр: Комедия, спорт
Описание фильма:
Фильм расскажет о двух бывших боксерах, решающих вернуться на ринг ради финального матча, который должен будет уладить все их разногласия и расставить точки над «и».
Режиссер: Питер Сигал / Peter Segal
Продюсер: Майкл Юинг, Билл Гербер, Марк Стивен Джонсон
Актеры: Роберт Де Ниро, Сильвестр Сталлоне, Алан Аркин, Ким Бейсингер, Кевин Харт, Джон Бернтал, Кемден Грэй, Пол Бен-Виктор, ЭлЭл Кул Джей, Энтони Андерсон
Язык: Русский, украинский, английский
Перевод: Дублированный, Одноголосый закадровый (авторский)
Вид субтитров: Вшитые отключаемые
Язык субтитров: Русский (forced, full), украинский (forced, full), английский (SDH)

Дата мировой премьеры: 16 декабря 2013
Дата российской премьеры: 16 января 2014, «Каро-Премьер»
Дата выхода DVD релиза: 30 апреля 2014, «CP Дистрибуция»
Дата выхода Blu-Ray релиза: 30 апреля 2014, «CP Дистрибуция»
Рейтинг MPAA: PG-13
Возраст: 16+
Продолжительность: 01:53:16
Качество видео: BDRemux
Видео: MPEG4_AVC/H.264, 1920x1080, ~25827 kbps, 0.492 bit/pixel
Аудио 1: AC3 5.1, 384 kbps, 48 kHz [Русский - дублированный «iTunes Russia»]
Аудио 2: AC3 2.0, 384 kbps, 48 kHz [Русский - одноголосый закадровый «Д. Пучков aka Гоблин»]
Аудио 3: AC3 2.0, 192 kbps, 48 kHz [Украинский - дублированный « iTunes Russia»]
Аудио 4: DTS-HD MA 5.1, 2642 kbps, 48 kHz [Английский - оригинал]
Аудио 5: AC3 5.1, 640 kbps, 48 kHz [Английский - Descriptive]

Отчёт MediaInfo

Полное имя : D:\Забойный.реванш-Grudge.Match.(2013).BDRemux.[1080p].mkv
Формат : Matroska
Версия формата : Version 2
Размер файла : 23,8 Гбайт
Продолжительность : 1 ч. 53 м.
Режим общего битрейта : Переменный
Общий поток : 30,1 Мбит/сек
Название фильма : Grudge Match (2013) / Lelya_K for NNM-Club
Дата кодирования : UTC 2014-03-25 12:09:57
Программа кодирования : mkvmerge v5.7.0 ('The Whirlwind') built on Aug 7 2012 14:11:40
Библиотека кодирования : libebml v1.2.3 + libmatroska v1.3.0
Attachment : Yes
Видео
Идентификатор : 1
Формат : AVC
Формат/Информация : Advanced Video Codec
Профиль формата : [email protected]
Параметр CABAC формата : Да
Параметр ReFrames формата : 2 кадра
Идентификатор кодека : V_MPEG4/ISO/AVC
Продолжительность : 1 ч. 53 м.
Вид битрейта : Переменный
Битрейт : 24,5 Мбит/сек
Ширина : 1920 пикселей
Высота : 1080 пикселей
Соотношение сторон : 16:9
Режим частоты кадров : Постоянный
Частота кадров : 23,976 кадра/сек
Цветовое пространство : YUV
Субдискретизация насыщенности : 4:2:0
Битовая глубина : 8 бит
Тип развёртки : Прогрессивная
Бит/(Пиксели*Кадры) : 0.492
Размер потока : 19,4 Гбайт (81%)
Заголовок : Забойный.реванш-Grudge.Match.(2013).BDRemux.[1080p]
Язык : English
Default : Да
Forced : Нет
Аудио #1
Идентификатор : 2
Формат : AC-3
Формат/Информация : Audio Coding 3
Расширение режима : CM (complete main)
Параметр Endianness формата : Big
Идентификатор кодека : A_AC3
Продолжительность : 1 ч. 53 м.
Вид битрейта : Постоянный
Битрейт : 384 Кбит/сек
Каналы : 6 каналов
Расположение каналов : Front: L C R, Side: L R, LFE
Частота : 48,0 КГц
Битовая глубина : 16 бит
Метод сжатия : С потерями
Размер потока : 311 Мбайт (1%)
Заголовок : AC3 5.1 / 384 kbps / Dub (iTunes Russia)
Язык : Russian
Default : Да
Forced : Нет
Аудио #2
Идентификатор : 3
Формат : AC-3
Формат/Информация : Audio Coding 3
Расширение режима : CM (complete main)
Параметр Endianness формата : Big
Идентификатор кодека : A_AC3
Продолжительность : 1 ч. 53 м.
Вид битрейта : Постоянный
Битрейт : 384 Кбит/сек
Каналы : 2 канала
Расположение каналов : Front: L R
Частота : 48,0 КГц
Битовая глубина : 16 бит
Метод сжатия : С потерями
Размер потока : 311 Мбайт (1%)
Заголовок : AC3 2.0 / 384 kbps / AVO (Д. Пучков aka Гоблин)
Язык : Russian
Default : Нет
Forced : Нет
Аудио #3
Идентификатор : 4
Формат : AC-3
Формат/Информация : Audio Coding 3
Расширение режима : CM (complete main)
Параметр Endianness формата : Big
Идентификатор кодека : A_AC3
Продолжительность : 1 ч. 53 м.
Вид битрейта : Постоянный
Битрейт : 192 Кбит/сек
Каналы : 2 канала
Расположение каналов : Front: L R
Частота : 48,0 КГц
Битовая глубина : 16 бит
Метод сжатия : С потерями
Размер потока : 156 Мбайт (1%)
Заголовок : AC3 2.0 / 192 kbps / Dub (iTunes Russia)
Язык : Ukrainian
Default : Нет
Forced : Нет
Аудио #4
Идентификатор : 5
Формат : DTS
Формат/Информация : Digital Theater Systems
Профиль формата : MA / Core
Идентификатор кодека : A_DTS
Продолжительность : 1 ч. 53 м.
Вид битрейта : Переменный
Битрейт : 3403 Кбит/сек / 1510 Кбит/сек
Каналы : 6 каналов
Расположение каналов : Front: L C R, Side: L R, LFE
Частота : 48,0 КГц
Битовая глубина : 24 бит
Метод сжатия : Без потерь / Lossy
Заголовок : DTS-HD MA 5.1 / 2642 kbps / Original
Язык : English
Default : Нет
Forced : Нет
Аудио #5
Идентификатор : 6
Формат : AC-3
Формат/Информация : Audio Coding 3
Расширение режима : CM (complete main)
Параметр Endianness формата : Big
Идентификатор кодека : A_AC3
Продолжительность : 1 ч. 53 м.
Вид битрейта : Постоянный
Битрейт : 640 Кбит/сек
Каналы : 6 каналов
Расположение каналов : Front: L C R, Side: L R, LFE
Частота : 48,0 КГц
Битовая глубина : 16 бит
Метод сжатия : С потерями
Размер потока : 519 Мбайт (2%)
Заголовок : AC3 5.1 / 640 kbps / Descriptive
Язык : English
Default : Нет
Forced : Нет
Текст #1
Идентификатор : 7
Формат : UTF-8
Идентификатор кодека : S_TEXT/UTF8
Идентификатор кодека/Информация : UTF-8 Plain Text
Заголовок : Forced
Язык : Russian
Default : Да
Forced : Нет
Текст #2
Идентификатор : 8
Формат : UTF-8
Идентификатор кодека : S_TEXT/UTF8
Идентификатор кодека/Информация : UTF-8 Plain Text
Заголовок : Full
Язык : Russian
Default : Нет
Forced : Нет
Текст #3
Идентификатор : 9
Формат : UTF-8
Идентификатор кодека : S_TEXT/UTF8
Идентификатор кодека/Информация : UTF-8 Plain Text
Заголовок : Forced
Язык : Ukrainian
Default : Нет
Forced : Нет
Текст #4
Идентификатор : 10
Формат : UTF-8
Идентификатор кодека : S_TEXT/UTF8
Идентификатор кодека/Информация : UTF-8 Plain Text
Заголовок : Full
Язык : Ukrainian
Default : Нет
Forced : Нет
Текст #5
Идентификатор : 11
Формат : UTF-8
Идентификатор кодека : S_TEXT/UTF8
Идентификатор кодека/Информация : UTF-8 Plain Text
Заголовок : SDH
Язык : English
Default : Нет
Forced : Нет
Меню
00:00:00.000 : en:Chapter 1
00:10:07.229 : en:Chapter 2
00:19:20.783 : en:Chapter 3
00:29:24.970 : en:Chapter 4
00:39:11.849 : en:Chapter 5
00:50:06.002 : en:Chapter 6
00:59:09.336 : en:Chapter 7
01:09:21.738 : en:Chapter 8
01:20:02.463 : en:Chapter 9
01:29:20.603 : en:Chapter 10
01:39:52.778 : en:Chapter 11
01:45:15.933 : en:Chapter 12
Скриншоты:

Время раздачи: 24/7 (до 10 скачавших)

[Цитировать]



Показать сообщения:    

Текущее время: 04-Дек 21:22

Часовой пояс: UTC + 3


Вы не можете начинать темы
Вы не можете отвечать на сообщения
Вы не можете редактировать свои сообщения
Вы не можете удалять свои сообщения
Вы не можете голосовать в опросах
Вы не можете прикреплять файлы к сообщениям
Вы не можете скачивать файлы

!ВНИМАНИЕ!
Сайт не предоставляет электронные версии произведений, а занимается лишь коллекционированием и каталогизацией ссылок, присылаемых и публикуемых на форуме нашими читателями. Если вы являетесь правообладателем какого-либо представленного материала и не желаете, чтобы ссылка на него находилась в нашем каталоге, свяжитесь с нами, и мы незамедлительно удалим ее. Файлы для обмена на трекере предоставлены пользователями сайта, и администрация не несет ответственности за их содержание. Просьба не заливать файлы, защищенные авторскими правами, а также файлы нелегального содержания!