[ Сегодня идет свободное скачивание без начисления Download ]


Статистика раздачи
Нет
 
   
 
 
 
-Легок на помине (2014) WEBRip- Год выпуска: 2014
Производство: Россия, Базелевс Продакшн
Жанр: Комедия
Режиссер: Евгений Абызов
Актеры: Гарик Харламов, Кристина Асмус, Екатерина Васильева, Александр Ревва, Татьяна Космачева, Владимир Яглыч, Сергей Сафронов, Юрий Кузнецов, Анна Антонова, Александр Самойленко
Описание фильма:
Молодому и успешному риэлтору Павлу, провернувшему немало полулегальных сделок, необходимо получить доверенность на куплю-продажу старинного поместья. А для этого втереться в доверие к владелице недвижимости, одинокой старушке, доживающей свои дни в родовом гнезде. Разработав хитрый план, риэлтор-аферист получает заветную бумагу и начинает готовить поместье к продаже, празднуя очередную победу. Но не тут-то было! В отлаженный ход событий вмешиваются высшие силы. С наступлением темноты с Павлом происходят необъяснимые события — он внезапно начинает перемещаться в пространстве…

сэмпл
Дата мировой премьеры: 20 февраля 2014
Дата российской премьеры: 27 февраля 2014, «Каропрокат»
Продолжительность: 01:18:52
Качество видео: WEBRip [profile-LQ]
Видеокодек: MPEG-4 AVC/H.264
Битрейт видео: ~1240 Kbps
Размер кадра: 944x400
Аудиокодек: AC3 2.0
Битрейт аудио: 256 kbps

MediaInfo

General
Unique ID : 181718809949514798335298611722959479044 (0x88B5C50E996EDEF5B74B223135606104)
Complete name : Лёгок на помине.mkv
Format : Matroska
Format version : Version 4 / Version 2
File size : 831 MiB
Duration : 1h 18mn
Overall bit rate : 1 473 Kbps
Movie name : Легок на помине (rip by smithland)
Encoded date : UTC 2010-02-22 21:41:31
Writing application : mkvmerge v5.9.0 ('On The Loose')
Writing library : libebml v1.3.0 + libmatroska v1.4.0
Attachment : Yes
Video
ID : 1
Format : AVC
Format/Info : Advanced Video Codec
Format profile : [email protected]
Format settings, CABAC : Yes
Format settings, ReFrames : 10 frames
Codec ID : V_MPEG4/ISO/AVC
Duration : 1h 18mn
Bit rate : 1 240 Kbps
Width : 944 pixels
Height : 400 pixels
Display aspect ratio : 2.35:1
Frame rate mode : Constant
Frame rate : 25.000 fps
Color space : YUV
Chroma subsampling : 4:2:0
Bit depth : 8 bits
Scan type : Progressive
Bits/(Pixel*Frame) : 0.131
Stream size : 670 MiB (81%)
Writing library : x264 core 130 r2273 b3065e6
Encoding settings : cabac=1 / ref=10 / deblock=1:-1:0 / analyse=0x3:0x133 / me=umh / subme=11 / psy=1 / psy_rd=1.55:0.50 / mixed_ref=1 / me_range=26 / chroma_me=1 / trellis=2 / 8x8dct=1 / cqm=0 / deadzone=21,11 / fast_pskip=0 / chroma_qp_offset=-4 / threads=12 / lookahead_threads=1 / sliced_threads=0 / nr=0 / decimate=1 / interlaced=0 / bluray_compat=0 / constrained_intra=0 / bframes=8 / b_pyramid=2 / b_adapt=1 / b_bias=0 / direct=1 / weightb=1 / open_gop=1 / weightp=2 / keyint=250 / keyint_min=25 / scenecut=40 / intra_refresh=0 / rc_lookahead=50 / rc=abr / mbtree=1 / bitrate=1240 / ratetol=1.0 / qcomp=0.60 / qpmin=0 / qpmax=69 / qpstep=4 / ip_ratio=1.45 / aq=1:1.00
Language : Russian
Default : Yes
Forced : Yes
Color primaries : Generic film
Audio
ID : 2
Format : AC-3
Format/Info : Audio Coding 3
Mode extension : CM (complete main)
Format settings, Endianness : Big
Codec ID : A_AC3
Duration : 1h 18mn
Bit rate mode : Constant
Bit rate : 256 Kbps
Channel count : 2 channels
Channel positions : Front: L R
Sampling rate : 48.0 KHz
Bit depth : 16 bits
Compression mode : Lossy
Stream size : 144 MiB (17%)
Language : Russian
Default : Yes
Forced : Yes
Скриншоты:

[Цитировать]

Топик был перенесен из форума Новинки кинопроката в форум Нарушения
neo11



Показать сообщения:    

Текущее время: 04-Дек 19:20

Часовой пояс: UTC + 3


Вы не можете начинать темы
Вы не можете отвечать на сообщения
Вы не можете редактировать свои сообщения
Вы не можете удалять свои сообщения
Вы не можете голосовать в опросах
Вы не можете прикреплять файлы к сообщениям
Вы не можете скачивать файлы

!ВНИМАНИЕ!
Сайт не предоставляет электронные версии произведений, а занимается лишь коллекционированием и каталогизацией ссылок, присылаемых и публикуемых на форуме нашими читателями. Если вы являетесь правообладателем какого-либо представленного материала и не желаете, чтобы ссылка на него находилась в нашем каталоге, свяжитесь с нами, и мы незамедлительно удалим ее. Файлы для обмена на трекере предоставлены пользователями сайта, и администрация не несет ответственности за их содержание. Просьба не заливать файлы, защищенные авторскими правами, а также файлы нелегального содержания!