[ Сегодня идет свободное скачивание без начисления Download ]


Статистика раздачи
Нет
 
   
 
Top  
 
 
-Дорога в чат (2014) DVDRip«Две истории. Двойная жизнь. И долгая дорога в ... чат»- Год выпуска: 2014
Производство: Россия / Arnando Studio
Жанр: Драма, Мелодрама
Перевод: Не требуется (Русский)
Субтитры: Отсутствуют
Режиссер: Руслан Гаврилов
Актеры: Ирина Видрицкая, Сергей Марков, Евгений Чауш, Михаил Мухин, Руслан Гаврилов
Описание фильма:
История повествует о двух параллельных жизнях, в которых главная героиня вынуждена, по тем или иным причинам вести двойную жизнь. Днём, она тихая и незаметная, а ночью становится участницей эротического видеочата.

Дата российской премьеры: 22 марта 2014
Продолжительность: 00:55:09
Качество видео: DVDRip
Видеокодек: Xvid
Битрейт видео: ~1539 Kbit/s
Размер кадра: 720 x 304
Аудиокодек: MP3, 2.0
Битрейт аудио: 320 Kbit/s (VBR)

MediaInfo

Общее
Полное имя                       : D:\Торренты\Дорога в чат.2014.DVDRip.avi
Формат                           : AVI
Формат/Информация                : Audio Video Interleave
Размер файла                     : 738 Мбайт
Продолжительность                : 55 м.
Общий поток                      : 1871 Кбит/сек
Программа кодирования            : VirtualDubMod 1.5.10.3 (build 2550/release)
Библиотека кодирования           : VirtualDubMod build 2550/release
Видео
Идентификатор                    : 0
Формат                           : MPEG-4 Visual
Профиль формата                  : Advanced Simple@L5
Параметр BVOP формата            : 1
Параметр QPel формата            : Нет
Параметр GMC формата             : Без точки перехода
Параметр матрицы формата         : Выборочная
Идентификатор кодека             : XVID
Идентификатор кодека/Подсказка   : XviD
Продолжительность                : 55 м.
Битрейт                          : 1539 Кбит/сек
Ширина                           : 720 пикс.
Высота                           : 304 пикс.
Соотношение сторон               : 2,35:1
Частота кадров                   : 23,976 кадр/сек
Цветовое пространство            : YUV
Подвыборка цветности             : 4:2:0
Битовая глубина                  : 8 бит
Тип развёртки                    : Прогрессивная
Метод сжатия                     : С потерями
Бит/(Пиксели*Кадры)              : 0.293
Размер потока                    : 607 Мбайт (82%)
Библиотека кодирования           : XviD 73
Аудио
Идентификатор                    : 1
Формат                           : MPEG Audio
Версия формата                   : Version 1
Профиль формата                  : Layer 3
Режим                            : Joint stereo
Расширение режима                : MS Stereo
Идентификатор кодека             : 55
Идентификатор кодека/Подсказка   : MP3
Продолжительность                : 55 м.
Вид битрейта                     : Переменный
Битрейт                          : 320 Кбит/сек
Каналы                           : 2 канала
Частота                          : 44,1 КГц
Метод сжатия                     : С потерями
Размер потока                    : 126 Мбайт (17%)
Выравнивание                     : Соединение по промежуткам
Продолжительность промежутка     : 26  мс. (0,63 видеокадр)
Время предзагрузки промежутка    : 498 ms
Библиотека кодирования           : LAME3.97
Скриншоты:

[Цитировать]

Топик был перенесен из форума Новинки кинопроката в форум Драма
Henkok



Показать сообщения:    

Текущее время: 08-Дек 19:10

Часовой пояс: UTC + 3


Вы не можете начинать темы
Вы не можете отвечать на сообщения
Вы не можете редактировать свои сообщения
Вы не можете удалять свои сообщения
Вы не можете голосовать в опросах
Вы не можете прикреплять файлы к сообщениям
Вы не можете скачивать файлы

!ВНИМАНИЕ!
Сайт не предоставляет электронные версии произведений, а занимается лишь коллекционированием и каталогизацией ссылок, присылаемых и публикуемых на форуме нашими читателями. Если вы являетесь правообладателем какого-либо представленного материала и не желаете, чтобы ссылка на него находилась в нашем каталоге, свяжитесь с нами, и мы незамедлительно удалим ее. Файлы для обмена на трекере предоставлены пользователями сайта, и администрация не несет ответственности за их содержание. Просьба не заливать файлы, защищенные авторскими правами, а также файлы нелегального содержания!