[ Сегодня идет свободное скачивание без начисления Download ]


Статистика раздачи
Нет
 
   
 
Top  
 
 
-Невероятная жизнь Уолтера Митти / The Secret Life of Walter Mitty (2013) WEB-DL [H.264/720р-LQ]- Год выпуска: 2013
Производство: США, 20th Century Fox Film Corporation, Red House Entertainment, Truenorth Productions
Жанр: Приключения, Мелодрама, Комедия
Перевод: Дублированный (iTunes)
Субтитры: Вшитые отключаемые
Язык субтитров: Английский, Испанский, Французский, Португальский
Дата мировой премьеры: 5 октября 2013 (США, Кинофестиваль в Нью-Йорке)
Дата российской премьеры: 1 января 2014, «Двадцатый Век Фокс СНГ»
Дата выхода DVD релиза: 3 апреля 2014, «Двадцатый Век Фокс СНГ»
Дата выхода Blu-Ray релиза: 3 апреля 2014, «Двадцатый Век Фокс СНГ»
Режиссер: Бен Стиллер
Продюсер: Дж. Мак Браун, Стюарт Корнфелд, Сэмюэл Голдуин мл.
Актеры: Бен Стиллер, Кристен Уиг, Джон Дэйли, Кэтрин Хан, Теренс Берни Хайнс, Адам Скотт, Пол Фицджералд, Грэйс Рекс, Алекс Анфанджер, Аманда Нафтон
Описание фильма:
Кто сказал, что в сердце маленького человека не могут жить великие мечты? Даже скромному и незаметному служащему хочется иногда совершить пусть безумные, но геройские поступки, поверить в свою силу и мужество. Почему всех спасать должны исключительно супермены?

Рейтинг MPAA: PG
Возраст: 12+
Продолжительность: 01:54:51
Качество видео: WEB-DL
Видеокодек: MPEG-4 AVC/H.264
Битрейт видео: 3877 kb/s
Размер кадра: 1280x532
Аудио #1: 48 kHz, AC3 Dolby Digital, 3/2 (L,C,R,l,r) + LFE ch, 384.00 kbps (Русский) / Дубляж
Аудио #2: 48 kHz, AC3 Dolby Digital, 3/2 (L,C,R,l,r) + LFE ch, 384.00 kbps (Английский) / Оригинал

MI

Общее
Уникальный идентификатор                 : 234532668188325333760067830486151925404 (0xB071594EE522EFDF841C26420C070E9C)
Полное имя                               : D:\Раздачи\Jizn.Waltera.Mitty.2013.WEB-DL.720p.NNM-CLUB.mkv
Формат                                   : Matroska
Версия формата                           : Version 2
Размер файла                             : 3,80 Гбайт
Продолжительность                        : 1 ч. 54 м.
Общий поток                              : 4740 Кбит/сек
Название фильма                          : Jizn.Waltera.Mitty.2013.WEB-DL.720p.NNM-CLUB
Дата кодирования                         : UTC 2014-03-25 19:26:49
Программа кодирования                    : mkvmerge v4.9.1 ('Ich will') сборка от Jul 11 2011 23:53:15
Библиотека кодирования                   : libebml v1.2.1 + libmatroska v1.1.1
Видео
Идентификатор                            : 1
Формат                                   : AVC
Формат/Информация                        : Advanced Video Codec
Профиль формата                          : [url=mailto:Main@L3.1]Main@L3.1[/url]
Параметр CABAC формата                   : Нет
Параметр ReFrames формата                : 2 кадра
Идентификатор кодека                     : V_MPEG4/ISO/AVC
Продолжительность                        : 1 ч. 54 м.
Битрейт                                  : 3877 Кбит/сек
Ширина                                   : 1280 пикселей
Высота                                   : 532 пикселя
Соотношение сторон                       : 2,40:1
Режим частоты кадров                     : Постоянный
Частота кадров                           : 23,976 кадра/сек
Цветовое пространство                    : YUV
Субдискретизация насыщенности            : 4:2:0
Битовая глубина                          : 8 бит
Тип развёртки                            : Прогрессивная
Бит/(Пиксели*Кадры)                      : 0.237
Размер потока                            : 3,11 Гбайт (82%)
Язык                                     : English
Default                                  : Да
Forced                                   : Нет
Основные цвета                           : BT.709
Характеристики трансфера                 : BT.709
Коэффициенты матрицы                     : BT.709
Аудио #1
Идентификатор                            : 2
Формат                                   : AC-3
Формат/Информация                        : Audio Coding 3
Расширение режима                        : CM (complete main)
Параметр Endianness формата              : Big
Идентификатор кодека                     : A_AC3
Продолжительность                        : 1 ч. 54 м.
Вид битрейта                             : Постоянный
Битрейт                                  : 384 Кбит/сек
Каналы                                   : 6 каналов
Расположение каналов                     : Front: L C R, Side: L R, LFE
Частота                                  : 48,0 КГц
Битовая глубина                          : 16 бит
Метод сжатия                             : С потерями
Размер потока                            : 315 Мбайт (8%)
Заголовок                                : AC3.384Kbps (6ch) Russian (Дубляж «iTunes»)
Язык                                     : Russian
Default                                  : Да
Forced                                   : Нет
Аудио #2
Идентификатор                            : 3
Формат                                   : AC-3
Формат/Информация                        : Audio Coding 3
Расширение режима                        : CM (complete main)
Параметр Endianness формата              : Big
Идентификатор кодека                     : A_AC3
Продолжительность                        : 1 ч. 54 м.
Вид битрейта                             : Постоянный
Битрейт                                  : 384 Кбит/сек
Каналы                                   : 6 каналов
Расположение каналов                     : Front: L C R, Side: L R, LFE
Частота                                  : 48,0 КГц
Битовая глубина                          : 16 бит
Метод сжатия                             : С потерями
Размер потока                            : 315 Мбайт (8%)
Заголовок                                : AC3.384Kbps (6ch) Original
Язык                                     : English
Default                                  : Нет
Forced                                   : Нет
Текст #1
Идентификатор                            : 4
Формат                                   : UTF-8
Идентификатор кодека                     : S_TEXT/UTF8
Идентификатор кодека/Информация          : UTF-8 Plain Text
Язык                                     : English
Default                                  : Нет
Forced                                   : Нет
Текст #2
Идентификатор                            : 5
Формат                                   : UTF-8
Идентификатор кодека                     : S_TEXT/UTF8
Идентификатор кодека/Информация          : UTF-8 Plain Text
Язык                                     : English
Default                                  : Нет
Forced                                   : Нет
Текст #3
Идентификатор                            : 6
Формат                                   : UTF-8
Идентификатор кодека                     : S_TEXT/UTF8
Идентификатор кодека/Информация          : UTF-8 Plain Text
Язык                                     : French
Default                                  : Нет
Forced                                   : Нет
Текст #4
Идентификатор                            : 7
Формат                                   : UTF-8
Идентификатор кодека                     : S_TEXT/UTF8
Идентификатор кодека/Информация          : UTF-8 Plain Text
Язык                                     : Spanish
Default                                  : Нет
Forced                                   : Нет
Текст #5
Идентификатор                            : 8
Формат                                   : UTF-8
Идентификатор кодека                     : S_TEXT/UTF8
Идентификатор кодека/Информация          : UTF-8 Plain Text
Язык                                     : Portuguese
Default                                  : Нет
Forced                                   : Нет
Меню
00:00:00.000                             : en:1
00:02:49.000                             : en:2
00:05:38.000                             : en:3
00:08:32.000                             : en:4
00:10:52.000                             : en:5
00:13:50.000                             : en:6
00:17:46.000                             : en:7
00:20:37.000                             : en:8
00:23:30.000                             : en:9
00:26:28.000                             : en:10
00:30:05.000                             : en:11
00:32:16.000                             : en:12
00:34:57.000                             : en:13
00:38:15.000                             : en:14
00:40:28.000                             : en:15
00:44:47.000                             : en:16
00:48:09.000                             : en:17
00:51:25.000                             : en:18
00:54:31.000                             : en:19
00:57:23.000                             : en:20
00:59:57.000                             : en:21
01:03:05.000                             : en:22
01:05:23.000                             : en:23
01:09:21.000                             : en:24
01:11:17.000                             : en:25
01:14:01.000                             : en:26
01:18:25.000                             : en:27
01:22:44.000                             : en:28
01:28:46.000                             : en:29
01:30:17.000                             : en:30
01:33:47.000                             : en:31
01:35:32.000                             : en:32
01:38:17.000                             : en:33
01:39:41.000                             : en:34
01:42:54.000                             : en:35
01:44:20.000                             : en:36
Скриншоты:

[Цитировать]



Показать сообщения:    

Текущее время: 10-Дек 15:50

Часовой пояс: UTC + 3


Вы не можете начинать темы
Вы не можете отвечать на сообщения
Вы не можете редактировать свои сообщения
Вы не можете удалять свои сообщения
Вы не можете голосовать в опросах
Вы не можете прикреплять файлы к сообщениям
Вы не можете скачивать файлы

!ВНИМАНИЕ!
Сайт не предоставляет электронные версии произведений, а занимается лишь коллекционированием и каталогизацией ссылок, присылаемых и публикуемых на форуме нашими читателями. Если вы являетесь правообладателем какого-либо представленного материала и не желаете, чтобы ссылка на него находилась в нашем каталоге, свяжитесь с нами, и мы незамедлительно удалим ее. Файлы для обмена на трекере предоставлены пользователями сайта, и администрация не несет ответственности за их содержание. Просьба не заливать файлы, защищенные авторскими правами, а также файлы нелегального содержания!