[ Сегодня идет свободное скачивание без начисления Download ]


Статистика раздачи
Нет
 
   
 
Top  
 
 
-Универ. Новая общага (2014) SATRip- Режиссер / Телекомпания: ТНТ, Комеди Клаб Продакшн
Русское название: Универ. Новая общага
Год выпуска: 2014
Жанр: Комедия
Режиссер: Константин Смирнов, Максим Зыков
Актеры: Арарат Кещян, Станислав Ярушин, Анна Кузина, Настасья Самбурская, Анна Хилькевич, Владимир Фекленко, Елена Валюшкина, Андрей Лебедев, Сергей Пиоро
Описание фильма:
Вот и настал тот момент, которого мы все ждали. Это премьера сериала "Универ новый сосед". К нашим любимым героям подселят нового соседа, так как всем известно, что Кузя ушел с проекта Универ. Этот герой обещает быть таким же смешным как и сам кузя, так как из анонсов видно, что этот новый герой не блещет интеллектом как это было и с Кузей.- -Качество видео: SATRip
Продолжительность: 8x ~00:24:00
Видеокодек: XviD
Битрейт видео: ~1800 Кбит/сек
Размер кадра: 720 x 400
Аудиокодек: MP3 2.0
Битрейт аудио: 128 Кбит/сек-

MediaInfo:

Общее
Полное имя : D:\Видео\Универ. Новая общага 6 сезон (2014) SATRip\Универ. Новая общага_08.avi
Формат : AVI
Формат/Информация : Audio Video Interleave
Размер файла : 338 Мбайт
Продолжительность : 24 м.
Общий поток : 1938 Кбит/сек
Библиотека кодирования : VirtualDub build 32706/release
Видео
Идентификатор : 0
Формат : MPEG-4 Visual
Профиль формата : Advanced Simple@L5
Параметр BVOP формата : 2
Параметр QPel формата : Нет
Параметр GMC формата : Без точки перехода
Параметр матрицы формата : Default (MPEG)
Идентификатор кодека : XVID
Идентификатор кодека/Подсказка : XviD
Продолжительность : 24 м.
Битрейт : 1800 Кбит/сек
Ширина : 720 пикселей
Высота : 400 пикселей
Соотношение сторон : 16:9
Частота кадров : 25,000 кадров/сек
Цветовое пространство : YUV
Субдискретизация насыщенности : 4:2:0
Битовая глубина : 8 бит
Тип развёртки : Прогрессивная
Метод сжатия : С потерями
Бит/(Пиксели*Кадры) : 0.250
Размер потока : 314 Мбайт (93%)
Библиотека кодирования : XviD 1.2.1 (UTC 2008-12-04)
Аудио
Идентификатор : 1
Формат : MPEG Audio
Версия формата : Version 1
Профиль формата : Layer 3
Режим : Joint stereo
Расширение режима : MS Stereo
Идентификатор кодека : 55
Идентификатор кодека/Подсказка : MP3
Продолжительность : 24 м.
Вид битрейта : Постоянный
Битрейт : 128 Кбит/сек
Каналы : 2 канала
Частота : 48,0 КГц
Метод сжатия : С потерями
Размер потока : 22,4 Мбайт (7%)
Выравнивание : Разделение по промежуткам
Продолжительность промежутка : 40 мс. (1,00 видеокадр)
Время предзагрузки промежутка : 500 мс.
Скриншоты:

[Цитировать]



Показать сообщения:    

Текущее время: 09-Дек 10:39

Часовой пояс: UTC + 3


Вы не можете начинать темы
Вы не можете отвечать на сообщения
Вы не можете редактировать свои сообщения
Вы не можете удалять свои сообщения
Вы не можете голосовать в опросах
Вы не можете прикреплять файлы к сообщениям
Вы не можете скачивать файлы

!ВНИМАНИЕ!
Сайт не предоставляет электронные версии произведений, а занимается лишь коллекционированием и каталогизацией ссылок, присылаемых и публикуемых на форуме нашими читателями. Если вы являетесь правообладателем какого-либо представленного материала и не желаете, чтобы ссылка на него находилась в нашем каталоге, свяжитесь с нами, и мы незамедлительно удалим ее. Файлы для обмена на трекере предоставлены пользователями сайта, и администрация не несет ответственности за их содержание. Просьба не заливать файлы, защищенные авторскими правами, а также файлы нелегального содержания!