[ Сегодня идет свободное скачивание без начисления Download ]


Статистика раздачи
Нет
 
   
 
Top  
 
 
-Невероятная жизнь Уолтера Митти / The Secret Life of Walter Mitty (2013) BDRip [720p]«Хватит мечтать. Начни жить»- Год выпуска: 2013
Производство: США
Жанр: Приключения, мелодрама, драма, комедия, фэнтези
Язык: Русский, Английский
Перевод: Дублированный (iTunes)
Субтитры: Вшитые отключаемые
Язык субтитров: Английский
Режиссер: Бен Стиллер
Продюсер: Стюарт Корнфелд, Сэмюэл Голдуин мл., Джон Голдвин
Актеры: Бен Стиллер, Кристен Уиг, Джон Дэйли, Кэтрин Хан, Теренс Берни Хайнс, Адам Скотт, Пол Фицджералд, Грэйс Рекс, Алекс Анфанджер, Аманда Нафтон
Описание фильма:
Кто сказал, что в сердце маленького человека не могут жить великие мечты? Даже скромному и незаметному служащему хочется иногда совершить пусть безумные, но геройские поступки, поверить в свою силу и мужество. Почему всех спасать должны исключительно супермены?
Рейтинг MPAA: PG (рекомендуется присутствие родителей)
Возраст: 12+

Дата мировой премьеры: 5 октября 2013
Дата российской премьеры: 1 января 2014, «Двадцатый Век Фокс СНГ»
Дата выхода DVD релиза: 3 апреля 2014, «Двадцатый Век Фокс СНГ»
Дата выхода Blu-Ray релиза: 3 апреля 2014, «Двадцатый Век Фокс СНГ»
Продолжительность: 01:54:51
Качество видео: BDRip (720p)
Видеокодек: MPEG-4 AVC/H.264
Битрейт видео: ~5313 Kbps
Размер кадра: 1280x536, 23.976 fps
Аудио #1: AC3, 48.0 KHz, 6 ch, 384 Kbps, CBR (Русский, Дубляж)
Аудио #2: DTS, 48.0 KHz, 6 ch, 1510 Kbps, CBR (Английский)

Mediainfo

Формат                                   : Matroska
Версия формата                           : Version 4 / Version 2
Размер файла                             : 5,77 Гбайт
Продолжительность                        : 1 ч. 54 м.
Общий поток                              : 7204 Кбит/сек
Дата кодирования                         : UTC 2014-03-27 10:34:43
Программа кодирования                    : mkvmerge v6.1.0 ('Old Devil') built on Mar  4 2013 09:10:42
Библиотека кодирования                   : libebml v1.3.0 + libmatroska v1.4.0
Видео
Идентификатор                            : 1
Формат                                   : AVC
Формат/Информация                        : Advanced Video Codec
Профиль формата                          : [url=mailto:High@L4.1]High@L4.1[/url]
Параметр CABAC формата                   : Да
Параметр ReFrames формата                : 5 кадров
Идентификатор кодека                     : V_MPEG4/ISO/AVC
Продолжительность                        : 1 ч. 54 м.
Битрейт                                  : 5313 Кбит/сек
Ширина                                   : 1280 пикселей
Высота                                   : 536 пикселей
Соотношение сторон                       : 2,40:1
Режим частоты кадров                     : Постоянный
Частота кадров                           : 23,976 кадра/сек
Цветовое пространство                    : YUV
Субдискретизация насыщенности            : 4:2:0
Битовая глубина                          : 8 бит
Тип развёртки                            : Прогрессивная
Бит/(Пиксели*Кадры)                      : 0.323
Размер потока                            : 4,14 Гбайт (72%)
Библиотека кодирования                   : x264 core 140 r2377 1ca7bb9
Настройки программы                      : cabac=1 / ref=5 / deblock=1:0:0 / analyse=0x3:0x133 / me=umh / subme=7 / psy=1 / psy_rd=1.00:0.00 / mixed_ref=1 / me_range=16 / chroma_me=1 / trellis=1 / 8x8dct=1 / cqm=0 / deadzone=21,11 / fast_pskip=0 / chroma_qp_offset=-2 / threads=12 / lookahead_threads=2 / sliced_threads=0 / nr=0 / decimate=1 / interlaced=0 / bluray_compat=0 / constrained_intra=0 / bframes=3 / b_pyramid=2 / b_adapt=1 / b_bias=0 / direct=1 / weightb=1 / open_gop=0 / weightp=2 / keyint=250 / keyint_min=23 / scenecut=40 / intra_refresh=0 / rc_lookahead=40 / rc=2pass / mbtree=1 / bitrate=5313 / ratetol=1.0 / qcomp=0.60 / qpmin=0 / qpmax=69 / qpstep=4 / cplxblur=20.0 / qblur=0.5 / ip_ratio=1.40 / aq=1:1.00
Язык                                     : English
Default                                  : Да
Forced                                   : Нет
Аудио #1
Идентификатор                            : 2
Формат                                   : AC-3
Формат/Информация                        : Audio Coding 3
Расширение режима                        : CM (complete main)
Параметр Endianness формата              : Big
Идентификатор кодека                     : A_AC3
Продолжительность                        : 1 ч. 54 м.
Вид битрейта                             : Постоянный
Битрейт                                  : 384 Кбит/сек
Каналы                                   : 6 каналов
Расположение каналов                     : Front: L C R, Side: L R, LFE
Частота                                  : 48,0 КГц
Битовая глубина                          : 16 бит
Метод сжатия                             : С потерями
Размер потока                            : 315 Мбайт (5%)
Язык                                     : Russian
Default                                  : Да
Forced                                   : Нет
Аудио #2
Идентификатор                            : 3
Формат                                   : DTS
Формат/Информация                        : Digital Theater Systems
Режим                                    : 16
Параметр Endianness формата              : Big
Идентификатор кодека                     : A_DTS
Продолжительность                        : 1 ч. 54 м.
Вид битрейта                             : Постоянный
Битрейт                                  : 1509 Кбит/сек
Каналы                                   : 6 каналов
Расположение каналов                     : Front: L C R, Side: L R, LFE
Частота                                  : 48,0 КГц
Битовая глубина                          : 24 бит
Метод сжатия                             : С потерями
Размер потока                            : 1,21 Гбайт (21%)
Язык                                     : English
Default                                  : Нет
Forced                                   : Нет
Текст #1
Идентификатор                            : 4
Формат                                   : UTF-8
Идентификатор кодека                     : S_TEXT/UTF8
Идентификатор кодека/Информация          : UTF-8 Plain Text
Заголовок                                : Forced
Язык                                     : English
Default                                  : Нет
Forced                                   : Нет
Текст #2
Идентификатор                            : 5
Формат                                   : UTF-8
Идентификатор кодека                     : S_TEXT/UTF8
Идентификатор кодека/Информация          : UTF-8 Plain Text
Заголовок                                : SDH
Язык                                     : English
Default                                  : Нет
Forced                                   : Нет
Меню
00:00:00.000                             : en:00:00:00.000
00:02:51.004                             : en:00:02:51.004
00:05:39.756                             : en:00:05:39.756
00:08:33.972                             : en:00:08:33.972
00:10:54.571                             : en:00:10:54.571
00:13:52.248                             : en:00:13:52.248
00:17:48.234                             : en:00:17:48.234
00:20:39.655                             : en:00:20:39.655
00:23:33.245                             : en:00:23:33.245
00:26:31.381                             : en:00:26:31.381
00:30:08.265                             : en:00:30:08.265
00:32:19.521                             : en:00:32:19.521
00:35:01.057                             : en:00:35:01.057
00:38:18.838                             : en:00:38:18.838
00:40:31.846                             : en:00:40:31.846
00:44:51.480                             : en:00:44:51.480
00:48:13.891                             : en:00:48:13.891
00:51:29.670                             : en:00:51:29.670
00:54:36.273                             : en:00:54:36.273
00:57:28.403                             : en:00:57:28.403
01:00:02.140                             : en:01:00:02.140
01:03:10.620                             : en:01:03:10.620
01:05:28.383                             : en:01:05:28.383
01:09:27.288                             : en:01:09:27.288
01:11:23.029                             : en:01:11:23.029
01:14:06.651                             : en:01:14:06.651
01:18:31.749                             : en:01:18:31.749
01:22:50.883                             : en:01:22:50.883
01:28:52.536                             : en:01:28:52.536
01:30:24.461                             : en:01:30:24.461
01:33:54.671                             : en:01:33:54.671
01:35:39.484                             : en:01:35:39.484
01:38:24.357                             : en:01:38:24.357
01:39:48.274                             : en:01:39:48.274
01:43:01.675                             : en:01:43:01.675
01:44:28.262                             : en:01:44:28.262
Скриншоты:

[Цитировать]

Топик был перенесен из форума Новинки кинопроката 2016 (HD Video) в форум Архив
D-r Woland_kz



Показать сообщения:    

Текущее время: 23-Июн 23:10

Часовой пояс: UTC + 6


Вы не можете начинать темы
Вы не можете отвечать на сообщения
Вы не можете редактировать свои сообщения
Вы не можете удалять свои сообщения
Вы не можете голосовать в опросах
Вы не можете прикреплять файлы к сообщениям
Вы не можете скачивать файлы

!ВНИМАНИЕ!
Сайт не предоставляет электронные версии произведений, а занимается лишь коллекционированием и каталогизацией ссылок, присылаемых и публикуемых на форуме нашими читателями. Если вы являетесь правообладателем какого-либо представленного материала и не желаете, чтобы ссылка на него находилась в нашем каталоге, свяжитесь с нами, и мы незамедлительно удалим ее. Файлы для обмена на трекере предоставлены пользователями сайта, и администрация не несет ответственности за их содержание. Просьба не заливать файлы, защищенные авторскими правами, а также файлы нелегального содержания!