[ Сегодня идет свободное скачивание без начисления Download ]


Статистика раздачи
Нет
 
   
 
Top  
 
 
-Сквозь снег / Snowpiercer (2013) BDRip
«AD 2031: the passengers in the train are the only survivors on Earth»
- Год выпуска: 2013
Производство: Корея Южная, США, Франция, Чехия | CJ Entertainment, Moho Films, Opus Pictures, SnowPiercer, Stillking Films
Жанр: Фантастика, Боевик, Драма
Режиссер: Пон Чжун Хо
Продюсер: Чжон Тхэ Сон, Стивен Нэм, Пак Чхан Ук
Актеры: Крис Эванс, Кан Хо Сон, Тильда Суинтон, Джейми Белл, Октавия Спенсер, Юэн Бремнер, Элисон Пилл, Ко А Сон, Эд Харрис, Джон Хёрт
Описание фильма:
Земля. Недалекое будущее. Семнадцать лет назад на планете произошла техногенная катастрофа. Там, где раньше росли леса и цвели сады, теперь лежат снег и лед. Жизнь сохранилась лишь в гигантском поезде, без остановки мчащемся по трансевразийской магистрали. В первых вагонах состава живет правящая элита, во множестве последних — простые люди. Жизнь в хвосте поезда напоминает концлагерь — болезни, нищета, беспредел надсмотрщиков. Но именно здесь из среды униженных и оскорбленных восстает человек, способный восстановить справедливость. Однако у каждой благородной идеи есть своя темная сторона, и любая революция пожирает своих детей.
Перевод: Двуголосый закадровый (любительский)
Озвучка / Автор перевода: den904 & DeadSno
Субтитры: Вшитые отключаемые
Язык субтитров: Русский, английский

Дата мировой премьеры: 1 августа 2013
Продолжительность: 02:05:54
Качество видео: BDRip
Видеокодек: MPEG-4 AVC/H.264
Битрейт видео: ~2871 Кбит/с
Размер кадра: 1024x552 (1.85:1)
Аудио №1: 48 kHz, AC3, 5.1 ch, ~448 kbps | Русский
Аудио №2: 48 kHz, AC3, 5.1 ch, ~448 kbps | Английский
Сэмпл: Скачать

MediaInfo

General
Unique ID                      : 236945100832672649010803356933618548156 (0xB241F76BB05111D0A7D61E697DB63DBC)
Complete name                  : D:\фильмы\Skvozj.sneg.2013.BDRip.AVC.mkv
Format                         : Matroska
Format version                 : Version 4 / Version 2
File size                      : 3.31 GiB
Duration                       : 2h 5mn
Overall bit rate               : 3 767 Kbps
Encoded date                   : UTC 2014-03-27 10:39:06
Writing application            : mkvmerge v6.8.0 ('Theme for Great Cities') 64bit built on Mar  2 2014 21:34:26
Writing library                : libebml v1.3.0 + libmatroska v1.4.1
Video
ID                             : 1
Format                         : AVC
Format/Info                    : Advanced Video Codec
Format profile                 : [url=mailto:High@L4.1]High@L4.1[/url]
Format settings, CABAC         : Yes
Format settings, ReFrames      : 10 frames
Codec ID                       : V_MPEG4/ISO/AVC
Duration                       : 2h 5mn
Bit rate                       : 2 871 Kbps
Width                          : 1 024 pixels
Height                         : 552 pixels
Display aspect ratio           : 1.85:1
Frame rate mode                : Constant
Frame rate                     : 23.976 fps
Color space                    : YUV
Chroma subsampling             : 4:2:0
Bit depth                      : 8 bits
Scan type                      : Progressive
Bits/(Pixel*Frame)             : 0.212
Stream size                    : 2.46 GiB (74%)
Writing library                : x264 core 142 r2409+42 04be48a tMod [8-bit@4:2:0 X86_64]
Encoding settings              : cabac=1 / ref=10 / deblock=1:-3:-3 / analyse=0x3:0x133 / me=umh / subme=11 / psy=1 / fade_compensate=0.00 / psy_rd=1.00:0.20 / mixed_ref=1 / me_range=48 / chroma_me=1 / trellis=2 / 8x8dct=1 / cqm=0 / deadzone=21,11 / fast_pskip=0 / chroma_qp_offset=-3 / threads=6 / lookahead_threads=1 / sliced_threads=0 / nr=0 / decimate=0 / interlaced=0 / bluray_compat=0 / constrained_intra=0 / fgo=0 / bframes=12 / b_pyramid=2 / b_adapt=2 / b_bias=0 / direct=3 / weightb=1 / open_gop=0 / weightp=2 / keyint=240 / keyint_min=23 / scenecut=40 / intra_refresh=0 / rc=2pass / mbtree=0 / bitrate=2871 / ratetol=1.0 / qcomp=0.60 / qpmin=0:0:0 / qpmax=69:69:69 / qpstep=4 / cplxblur=20.0 / qblur=0.5 / ip_ratio=1.40 / pb_ratio=1.30 / aq=2:1.00 / aq-sensitivity=10.00 / aq-factor=1.00:1.00:1.00 / aq2=0 / aq3=0
Language                       : English
Default                        : Yes
Forced                         : No
Audio #1
ID                             : 2
Format                         : AC-3
Format/Info                    : Audio Coding 3
Mode extension                 : CM (complete main)
Format settings, Endianness    : Big
Codec ID                       : A_AC3
Duration                       : 2h 5mn
Bit rate mode                  : Constant
Bit rate                       : 448 Kbps
Channel(s)                     : 6 channels
Channel positions              : Front: L C R, Side: L R, LFE
Sampling rate                  : 48.0 KHz
Bit depth                      : 16 bits
Compression mode               : Lossy
Stream size                    : 403 MiB (12%)
Title                          : Любительский (двухголосый) [den904 & DeadSno]
Language                       : Russian
Default                        : Yes
Forced                         : No
Audio #2
ID                             : 3
Format                         : AC-3
Format/Info                    : Audio Coding 3
Mode extension                 : CM (complete main)
Format settings, Endianness    : Big
Codec ID                       : A_AC3
Duration                       : 2h 5mn
Bit rate mode                  : Constant
Bit rate                       : 448 Kbps
Channel(s)                     : 6 channels
Channel positions              : Front: L C R, Side: L R, LFE
Sampling rate                  : 48.0 KHz
Bit depth                      : 16 bits
Compression mode               : Lossy
Stream size                    : 403 MiB (12%)
Language                       : English
Default                        : No
Forced                         : No
Text #1
ID                             : 4
Format                         : UTF-8
Codec ID                       : S_TEXT/UTF8
Codec ID/Info                  : UTF-8 Plain Text
Language                       : Russian
Default                        : No
Forced                         : No
Text #2
ID                             : 5
Format                         : UTF-8
Codec ID                       : S_TEXT/UTF8
Codec ID/Info                  : UTF-8 Plain Text
Language                       : English
Default                        : No
Forced                         : No
Menu
00:00:00.000                   : en:Chapter 1
00:08:34.931                   : en:Chapter 2
00:21:25.534                   : en:Chapter 3
00:29:13.876                   : en:Chapter 4
00:39:08.512                   : en:Chapter 5
00:47:23.547                   : en:Chapter 6
00:56:42.565                   : en:Chapter 7
01:06:52.631                   : en:Chapter 8
01:15:16.552                   : en:Chapter 9
01:23:46.604                   : en:Chapter 10
01:36:24.110                   : en:Chapter 11
01:52:12.725                   : en:Chapter 12
02:05:52.711                   : en:Chapter 13
Скриншоты:

Сквозь снег / Snowpiercer на NNM
Время раздачи: 10:00 - 24:00

[Цитировать]



Показать сообщения:    

Текущее время: 08-Дек 01:07

Часовой пояс: UTC + 3


Вы не можете начинать темы
Вы не можете отвечать на сообщения
Вы не можете редактировать свои сообщения
Вы не можете удалять свои сообщения
Вы не можете голосовать в опросах
Вы не можете прикреплять файлы к сообщениям
Вы не можете скачивать файлы

!ВНИМАНИЕ!
Сайт не предоставляет электронные версии произведений, а занимается лишь коллекционированием и каталогизацией ссылок, присылаемых и публикуемых на форуме нашими читателями. Если вы являетесь правообладателем какого-либо представленного материала и не желаете, чтобы ссылка на него находилась в нашем каталоге, свяжитесь с нами, и мы незамедлительно удалим ее. Файлы для обмена на трекере предоставлены пользователями сайта, и администрация не несет ответственности за их содержание. Просьба не заливать файлы, защищенные авторскими правами, а также файлы нелегального содержания!