[ Сегодня идет свободное скачивание без начисления Download ]


Статистика раздачи
Нет
 
   
 
Top  
 
 
-Лекарь: Ученик Авиценны / The Physician (2013) BDRip-«Через пески времени к свету»-- Год выпуска: 2013
Производство: Германия / UFA Cinema, ARD Degeto Film, Beta Cinema
Жанр: Драма, Приключения
Режиссер: Филипп Штёльцль
Продюсер: Вульф Бауэр, Нико Хофманн, Ахмед Абуноум
Актеры: Том Пэйн, Бен Кингсли, Эмма Ригби, Стеллан Скарсгард, Оливье Мартинес, Элиас ЭмБарек, Майкл Джибсон, Стэнли Таунсенд, Майкл Маркус Морган, Адам Томас Райт
Описание фильма:
Англия, XI век. Мать десятилетнего Роба Коула умирает в страшных мучениях: никто не знает ни природы её болезни, ни лекарства против неё. Маленький Роб, потрясенный до глубины души, во что бы то ни стало стремится разгадать эту тайну.
Ему суждено пройти долгий путь, от Англии до Персии, его учителями становятся сначала обыкновенный шарлатан Барбер, а потом — великий лекарь Авиценна. Мудрый учитель видит в Робе необыкновенный талант к медицине, но советует ему не спешить делать вещи, которые не соответствуют веку. Но Роб ни перед чем не останавливается в своем желании научиться спасать людей от смерти, и над его собственной жизнью нависает угроза, ведь он дважды пошел против предрассудков: использовал для научных исследований тело человека и полюбил женщину, отданную в жены другому.
Перевод: Дублированный [лицензия]
Субтитры: Отсутствуют

Дата мировой премьеры: 25 декабря 2013
Дата российской премьеры: 6 февраля 2014, «Люксор»
Дата выхода DVD релиза: 1 апреля 2014, «Lizard Cinema Trade»
Дата выхода Blu-Ray релиза: 1 апреля 2014, «Lizard Cinema Trade»
Продолжительность: 02:34:46
Качество видео: BDRip [рип с BluRay 1080p]
Видеокодек: Xvid
Битрейт видео: ~1439 kb/s
Размер кадра: 720x304
Аудиокодек: AC3 5.1
Битрейт аудио: 448 kb/s
Сэмпл: Скачать

MediaInfo:

Общее
Полное имя                               :Lekar.Uchenik.Aviacenna.2013.D.HDRip.2100MB.nnm-club.avi
Формат                                   : AVI
Формат/Информация                        : Audio Video Interleave
Размер файла                             : 2,05 Гбайт
Продолжительность                        : 2 ч. 34 м.
Общий поток                              : 1896 Кбит/сек
Программа кодирования                    : VirtualDubMod 1.5.10.2 (build 2540/release)
Библиотека кодирования                   : VirtualDubMod build 2540/release
Видео
Идентификатор                            : 0
Формат                                   : MPEG-4 Visual
Профиль формата                          : Advanced Simple@L5
Параметр BVOP формата                    : 2
Параметр QPel формата                    : Нет
Параметр GMC формата                     : Без точки перехода
Параметр матрицы формата                 : Выборочная
Идентификатор кодека                     : XVID
Идентификатор кодека/Подсказка           : XviD
Продолжительность                        : 2 ч. 34 м.
Битрейт                                  : 1439 Кбит/сек
Ширина                                   : 720 пикселей
Высота                                   : 304 пикселя
Соотношение сторон                       : 2,35:1
Частота кадров                           : 24,000 кадра/сек
Цветовое пространство                    : YUV
Субдискретизация насыщенности            : 4:2:0
Битовая глубина                          : 8 бит
Тип развёртки                            : Прогрессивная
Метод сжатия                             : С потерями
Бит/(Пиксели*Кадры)                      : 0.274
Размер потока                            : 1,56 Гбайт (76%)
Библиотека кодирования                   : XviD 1.2.1 (UTC 2008-12-04)
Аудио
Идентификатор                            : 1
Формат                                   : AC-3
Формат/Информация                        : Audio Coding 3
Расширение режима                        : CM (complete main)
Параметр Endianness формата              : Big
Идентификатор кодека                     : 2000
Продолжительность                        : 2 ч. 34 м.
Вид битрейта                             : Постоянный
Битрейт                                  : 448 Кбит/сек
Каналы                                   : 6 каналов
Расположение каналов                     : Front: L C R, Side: L R, LFE
Частота                                  : 48,0 КГц
Битовая глубина                          : 16 бит
Метод сжатия                             : С потерями
Размер потока                            : 496 Мбайт (24%)
Выравнивание                             : Разделение по промежуткам
Продолжительность промежутка             : 42  мс. (1,00 видеокадр)
Время предзагрузки промежутка            : 500  мс.

[Цитировать]

Топик был перенесен из форума Новинки кинопроката в форум Драма
Henkok



Показать сообщения:    

Текущее время: 08-Дек 10:59

Часовой пояс: UTC + 3


Вы не можете начинать темы
Вы не можете отвечать на сообщения
Вы не можете редактировать свои сообщения
Вы не можете удалять свои сообщения
Вы не можете голосовать в опросах
Вы не можете прикреплять файлы к сообщениям
Вы не можете скачивать файлы

!ВНИМАНИЕ!
Сайт не предоставляет электронные версии произведений, а занимается лишь коллекционированием и каталогизацией ссылок, присылаемых и публикуемых на форуме нашими читателями. Если вы являетесь правообладателем какого-либо представленного материала и не желаете, чтобы ссылка на него находилась в нашем каталоге, свяжитесь с нами, и мы незамедлительно удалим ее. Файлы для обмена на трекере предоставлены пользователями сайта, и администрация не несет ответственности за их содержание. Просьба не заливать файлы, защищенные авторскими правами, а также файлы нелегального содержания!