[ Сегодня идет свободное скачивание без начисления Download ]


Статистика раздачи
Нет
 
   
 
Top  
 
 
-Паранормальное явление: Метка Дьявола / Paranormal Activity: The Marked Ones (2014) BDRip [1080p] [Line]- Год выпуска: 2014
Производство: США, Paramount Pictures, Blumhouse Productions, Room 101
Жанр: Ужасы, Триллер
Перевод: Дублированный [Чистый звук]
Субтитры: Отсутствуют
Режиссер: Кристофер Б. Лэндон
Продюсер: Джейсон Блум, Орен Пели, Стивен Шнайдер
Актеры: Эндрю Джейкобс, Хорхе Диаз, Габриэль Уолш, Рени Виктор, Ноеми Гонзалез, Дэвид Сауседо, Глория Сандовал, Ричард Кебрал, Карлос Праттс, Хуан Васкес
Описание фильма:
Потусторонняя сила, терроризировавшая героев предыдущих серий, вновь вырвалась на свободу в поисках новых жертв…

Дата мировой премьеры: 1 января 2014
Дата российской премьеры: 9 января 2014, «Централ Партнершип»
Дата выхода DVD релиза: 5 мая 2014, «Новый Диск»
Продолжительность: 01:24:12
Качество видео: BDRip [1080p] [profile-LQ]
Видеокодек: MPEG-4 AVC/H.264
Битрейт видео: ~9636 kb/s
Размер кадра: 1920x1080
Аудио#1: Русский: AC-3, 48.0 KHz, 2 ch, 192 Kbps, CBR
Аудио#2: Английский: DTS, 48.0 KHz, 6 ch, 1510 Kbps, CBR
Сэмпл: Скачать

MediaInfo

Общее
Уникальный идентификатор : 197368672303821180645718985078570176529 (0x947BD2D7EF0C9792AB08A5A7D36F5011)
Полное имя : E:\Фильмы\Paranormalnoe.Yavlenie.Metka.Dyavola.2013.D.BDRip.1080p.mkv
Формат : Matroska
Версия формата : Version 4 / Version 2
Размер файла : 6,67 Гбайт
Продолжительность : 1 ч. 24 м.
Общий поток : 11,3 Мбит/сек
Дата кодирования : UTC 2014-03-29 15:53:33
Программа кодирования : mkvmerge v6.5.0 ('Isn't she lovely') built on Oct 20 2013 12:50:05
Библиотека кодирования : libebml v1.3.0 + libmatroska v1.4.1
Видео
Идентификатор : 1
Формат : AVC
Формат/Информация : Advanced Video Codec
Профиль формата : High@L4.1
Параметр CABAC формата : Да
Параметр ReFrames формата : 4 кадра
Идентификатор кодека : V_MPEG4/ISO/AVC
Продолжительность : 1 ч. 24 м.
Битрейт : 9636 Кбит/сек
Ширина : 1920 пикселей
Высота : 1080 пикселей
Соотношение сторон : 16:9
Режим частоты кадров : Постоянный
Частота кадров : 23,976 кадра/сек
Цветовое пространство : YUV
Субдискретизация насыщенности : 4:2:0
Битовая глубина : 8 бит
Тип развёртки : Прогрессивная
Бит/(Пиксели*Кадры) : 0.194
Размер потока : 5,53 Гбайт (83%)
Библиотека кодирования : x264 core 140 r2377 1ca7bb9
Настройки программы : cabac=1 / ref=4 / deblock=1:0:0 / analyse=0x3:0x133 / me=umh / subme=7 / psy=1 / psy_rd=1.00:0.00 / mixed_ref=1 / me_range=16 / chroma_me=1 / trellis=1 / 8x8dct=1 / cqm=0 / deadzone=21,11 / fast_pskip=0 / chroma_qp_offset=-2 / threads=36 / lookahead_threads=6 / sliced_threads=0 / nr=0 / decimate=1 / interlaced=0 / bluray_compat=0 / constrained_intra=0 / bframes=3 / b_pyramid=2 / b_adapt=1 / b_bias=0 / direct=1 / weightb=1 / open_gop=0 / weightp=2 / keyint=250 / keyint_min=23 / scenecut=40 / intra_refresh=0 / rc_lookahead=40 / rc=2pass / mbtree=1 / bitrate=9636 / ratetol=1.0 / qcomp=0.60 / qpmin=0 / qpmax=69 / qpstep=4 / cplxblur=20.0 / qblur=0.5 / ip_ratio=1.40 / aq=1:1.00
Язык : English
Default : Да
Forced : Нет
Аудио #1
Идентификатор : 2
Формат : AC-3
Формат/Информация : Audio Coding 3
Расширение режима : CM (complete main)
Параметр Endianness формата : Big
Идентификатор кодека : A_AC3
Продолжительность : 1 ч. 24 м.
Вид битрейта : Постоянный
Битрейт : 192 Кбит/сек
Каналы : 2 канала
Расположение каналов : Front: L R
Частота : 48,0 КГц
Битовая глубина : 16 бит
Метод сжатия : С потерями
Размер потока : 116 Мбайт (2%)
Default : Да
Forced : Нет
Аудио #2
Идентификатор : 3
Формат : DTS
Формат/Информация : Digital Theater Systems
Режим : 16
Параметр Endianness формата : Big
Идентификатор кодека : A_DTS
Продолжительность : 1 ч. 24 м.
Вид битрейта : Постоянный
Битрейт : 1509 Кбит/сек
Каналы : 6 каналов
Расположение каналов : Front: L C R, Side: L R, LFE
Частота : 48,0 КГц
Битовая глубина : 24 бит
Метод сжатия : С потерями
Размер потока : 909 Мбайт (13%)
Язык : English
Default : Нет
Forced : Нет
Меню
00:00:00.000 : en:00:00:00.000
00:05:52.477 : en:00:05:52.477
00:10:06.564 : en:00:10:06.564
00:15:28.928 : en:00:15:28.928
00:19:12.818 : en:00:19:12.818
00:24:39.520 : en:00:24:39.520
00:30:02.926 : en:00:30:02.926
00:38:23.134 : en:00:38:23.134
00:43:24.810 : en:00:43:24.810
00:49:07.820 : en:00:49:07.820
00:55:41.213 : en:00:55:41.213
01:00:48.603 : en:01:00:48.603
01:06:34.449 : en:01:06:34.449
01:18:28.370 : en:01:18:28.370
Скриншоты:
/9aeec578bf01.jpg">

[Цитировать]

Топик был перенесен из форума Новинки кинопроката 2016 (HD Video) в форум Архив
D-r Woland_kz



Показать сообщения:    

Текущее время: 24-Июн 07:56

Часовой пояс: UTC + 6


Вы не можете начинать темы
Вы не можете отвечать на сообщения
Вы не можете редактировать свои сообщения
Вы не можете удалять свои сообщения
Вы не можете голосовать в опросах
Вы не можете прикреплять файлы к сообщениям
Вы не можете скачивать файлы

!ВНИМАНИЕ!
Сайт не предоставляет электронные версии произведений, а занимается лишь коллекционированием и каталогизацией ссылок, присылаемых и публикуемых на форуме нашими читателями. Если вы являетесь правообладателем какого-либо представленного материала и не желаете, чтобы ссылка на него находилась в нашем каталоге, свяжитесь с нами, и мы незамедлительно удалим ее. Файлы для обмена на трекере предоставлены пользователями сайта, и администрация не несет ответственности за их содержание. Просьба не заливать файлы, защищенные авторскими правами, а также файлы нелегального содержания!