[ Сегодня идет свободное скачивание без начисления Download ]


Статистика раздачи
Нет
 
   
 
Top  
 
 
-Охотники за духами / Ghost Team One (2013) HDRip
«Arouse the Dead»
- Год выпуска: 2013
Производство: Flying Monkeys Entertainment, Hernany Perla Films
Жанр: Ужасы, Комедия
Перевод: Дублированный [iTunes Russia]
Язык субтитров: Отсутствуют
Дата мировой премьеры: 20 января 2013
Дата российской премьеры: Неизвестно
Дата выхода DVD релиза: Неизвестно
Режиссер: Бен Пейсер, Скотт Рутерфорд
Продюсер: Адам Мутчлер, Нэйт Паркер, Luc Des Groseillers
Актеры: Карлос Сантос, Х.Р. Вильярреаль, Фернанда Ромеро, Тони Кавалеро, Меган Фальконе, Джеймс Бэбсон, Скотт МакАртур, Крэйг Стотт, Фелиция Хом
Описание фильма:
Когда соседи по комнате Бред и Сержио случайно пробуждают мятежного духа, они обьединяются с сексуальной охотницей на призраков, Фернандой, чтобы извести зло, поселившееся в их доме. Но по мере того, как ребята начинают подбираться поближе к прелестям новой партнёрши, проделки рогатого демона набирают обороты! Работают камеры, ужас сгущается, неприличный фарс становиться всё веселее.

Продолжительность: 01:24:16
Качество видео: HDRip [H.264]
Видео кодек: MPEG-4 AVC/H.264
Видео: 720x400 (16:9), 23,976 fps, ~1553 kbps, 0.225 bit/ pixel
Аудио №1: 48 kHz, AC3, 6 ch, Front: L C R, Side: L R, LFE, ~384 kbps | RUS
Аудио №2: 48 kHz, AC3, 6 ch, Front: L C R, Side: L R, LFE, ~384 kbps | ENG
Сэмпл: Скачать

MediaInfo

General
Unique ID                      : 236710416355632508486123618950944444609 (0xB214C495250E51B68B2E58BCA7E4D0C1)
Complete name                  : D:\фильмы\Ohotniki.za.duhami.2013.HDRip.AVC.mkv
Format                         : Matroska
Format version                 : Version 4 / Version 2
File size                      : 1.37 GiB
Duration                       : 1h 24mn
Overall bit rate               : 2 319 Kbps
Encoded date                   : UTC 2014-04-01 12:22:55
Writing application            : mkvmerge v6.5.0 ('Isn't she lovely') built on Oct 20 2013 12:50:05
Writing library                : libebml v1.3.0 + libmatroska v1.4.1
Video
ID                             : 1
Format                         : AVC
Format/Info                    : Advanced Video Codec
Format profile                 : [url=mailto:High@L4.1]High@L4.1[/url]
Format settings, CABAC         : Yes
Format settings, ReFrames      : 9 frames
Codec ID                       : V_MPEG4/ISO/AVC
Duration                       : 1h 24mn
Bit rate                       : 1 553 Kbps
Width                          : 720 pixels
Height                         : 400 pixels
Display aspect ratio           : 16:9
Frame rate mode                : Constant
Frame rate                     : 23.976 fps
Color space                    : YUV
Chroma subsampling             : 4:2:0
Bit depth                      : 8 bits
Scan type                      : Progressive
Bits/(Pixel*Frame)             : 0.225
Stream size                    : 907 MiB (65%)
Writing library                : x264 core 138 r2358 9e941d1
Encoding settings              : cabac=1 / ref=9 / deblock=1:-3:-3 / analyse=0x3:0x113 / me=umh / subme=7 / psy=1 / psy_rd=1.00:0.15 / mixed_ref=1 / me_range=32 / chroma_me=1 / trellis=1 / 8x8dct=1 / cqm=0 / deadzone=21,11 / fast_pskip=1 / chroma_qp_offset=-3 / threads=12 / lookahead_threads=2 / sliced_threads=0 / nr=0 / decimate=1 / interlaced=0 / bluray_compat=0 / constrained_intra=0 / bframes=7 / b_pyramid=2 / b_adapt=1 / b_bias=0 / direct=1 / weightb=1 / open_gop=0 / weightp=2 / keyint=240 / keyint_min=23 / scenecut=40 / intra_refresh=0 / rc_lookahead=40 / rc=2pass / mbtree=1 / bitrate=1553 / ratetol=1.0 / qcomp=0.60 / qpmin=0 / qpmax=69 / qpstep=4 / cplxblur=20.0 / qblur=0.5 / vbv_maxrate=62500 / vbv_bufsize=78125 / nal_hrd=none / ip_ratio=1.40 / aq=1:1.00
Language                       : English
Default                        : Yes
Forced                         : No
Audio #1
ID                             : 2
Format                         : AC-3
Format/Info                    : Audio Coding 3
Mode extension                 : CM (complete main)
Format settings, Endianness    : Big
Codec ID                       : A_AC3
Duration                       : 1h 24mn
Bit rate mode                  : Constant
Bit rate                       : 384 Kbps
Channel(s)                     : 6 channels
Channel positions              : Front: L C R, Side: L R, LFE
Sampling rate                  : 48.0 KHz
Bit depth                      : 16 bits
Compression mode               : Lossy
Stream size                    : 231 MiB (17%)
Language                       : Russian
Default                        : Yes
Forced                         : No
Audio #2
ID                             : 3
Format                         : AC-3
Format/Info                    : Audio Coding 3
Mode extension                 : CM (complete main)
Format settings, Endianness    : Big
Codec ID                       : A_AC3
Duration                       : 1h 24mn
Bit rate mode                  : Constant
Bit rate                       : 384 Kbps
Channel(s)                     : 6 channels
Channel positions              : Front: L C R, Side: L R, LFE
Sampling rate                  : 48.0 KHz
Bit depth                      : 16 bits
Compression mode               : Lossy
Stream size                    : 231 MiB (17%)
Language                       : English
Default                        : No
Forced                         : No
Скриншоты:

Время раздачи: 10:00 - 24:00

[Цитировать]



Показать сообщения:    

Текущее время: 07-Дек 00:56

Часовой пояс: UTC + 3


Вы не можете начинать темы
Вы не можете отвечать на сообщения
Вы не можете редактировать свои сообщения
Вы не можете удалять свои сообщения
Вы не можете голосовать в опросах
Вы не можете прикреплять файлы к сообщениям
Вы не можете скачивать файлы

!ВНИМАНИЕ!
Сайт не предоставляет электронные версии произведений, а занимается лишь коллекционированием и каталогизацией ссылок, присылаемых и публикуемых на форуме нашими читателями. Если вы являетесь правообладателем какого-либо представленного материала и не желаете, чтобы ссылка на него находилась в нашем каталоге, свяжитесь с нами, и мы незамедлительно удалим ее. Файлы для обмена на трекере предоставлены пользователями сайта, и администрация не несет ответственности за их содержание. Просьба не заливать файлы, защищенные авторскими правами, а также файлы нелегального содержания!