[ Сегодня идет свободное скачивание без начисления Download ]


Статистика раздачи
Нет
 
   
 
Top  
 
 
-Совместная поездка / Ride Along (2014) WEB-DLRip
«Propose to this cop's sister? Rookie mistake»
- Год выпуска: 2014
Производство: США | Cube Vision, LBI Entertainment, Rainforest Films
Жанр: Боевик, Комедия
Перевод: Одноголосый закадровый, любительский
Озвучка / Автор перевода: [qwerty]
Субтитры: Отсутствуют
Дата мировой премьеры: 17 января 2014 (Канада, США)
Режиссер: Тим Стори
Продюсер: Мэтт Альварес, Ларри Брэзнер, Айс Кьюб
Актеры: Айс Кьюб, Кевин Харт, Тика Самптер, Джон Легуизамо, Брюс МакГилл, Брайан Коллен, Лоуренс Фишберн, Драгос Букур, Гэри Оуэн, Джейкоб Латимор, Бенжамин Флорес-мл.
Описание фильма:
Охранник Бен Барбер и крутой коп Джеймс Пейтон друзья. Два года подряд Бен старается доказать Джеймсу, что он достоин его сестры Анжелы, но Джеймс, считая своего друга слабаком, не соглашается на брак. Тогда Бен, желая доказать, что он не хуже других, подает заявление в полицейскую академию. Джеймс же в свою очередь приглашает Бена в патруль по самым опасным улицам Атланты. Во время патрулирования, увлекшись разговорами, друзья, сами того не желая, вляпываются в серьезное противостояние с главными преступниками в городе...

Продолжительность: 01:39:32
Качество видео: WEB-DLRip
Видеокодек: Xvid
Битрейт видео: ~1500 Кбит/сек
Размер кадра: 720 x 296 (2.432) at 23.976 fps
Аудио #1: AC3 192 Кбит/сек (2ch), 48,0 КГц, 16 бит [Русский, VO "qwerty"]
Аудио #2: AC3 256 Кбит/сек (2ch), 48,0 КГц, 16 бит [Английский]

MediaInfo:

Полное имя                               : G:\Sovmestnaya.poezdka.2013.L1.WEB-DLRip.1400MB.avi
Формат                                   : AVI
Формат/Информация                        : Audio Video Interleave
Размер файла                             : 1,36 Гбайт
Продолжительность                        : 1 ч. 39 м.
Общий поток                              : 1962 Кбит/сек
Программа кодирования                    : VirtualDubMod 1.5.10.2 (build 2540/release)
Библиотека кодирования                   : VirtualDubMod build 2540/release
Видео
Идентификатор                            : 0
Формат                                   : MPEG-4 Visual
Профиль формата                          : Advanced Simple@L5
Параметр BVOP формата                    : 2
Параметр QPel формата                    : Нет
Параметр GMC формата                     : Без точки перехода
Параметр матрицы формата                 : Default (H.263)
Идентификатор кодека                     : XVID
Идентификатор кодека/Подсказка           : XviD
Продолжительность                        : 1 ч. 39 м.
Битрейт                                  : 1500 Кбит/сек
Ширина                                   : 720 пикселей
Высота                                   : 296 пикселей
Соотношение сторон                       : 2,40:1
Частота кадров                           : 23,976 кадра/сек
Цветовое пространство                    : YUV
Субдискретизация насыщенности            : 4:2:0
Битовая глубина                          : 8 бит
Тип развёртки                            : Прогрессивная
Метод сжатия                             : С потерями
Бит/(Пиксели*Кадры)                      : 0.294
Размер потока                            : 1,04 Гбайт (76%)
Библиотека кодирования                   : XviD 1.2.1 (UTC 2008-12-04)
Аудио #1
Идентификатор                            : 1
Формат                                   : AC-3
Формат/Информация                        : Audio Coding 3
Расширение режима                        : CM (complete main)
Параметр Endianness формата              : Big
Идентификатор кодека                     : 2000
Продолжительность                        : 1 ч. 39 м.
Вид битрейта                             : Постоянный
Битрейт                                  : 192 Кбит/сек
Каналы                                   : 2 канала
Расположение каналов                     : Front: L R
Частота                                  : 48,0 КГц
Битовая глубина                          : 16 бит
Метод сжатия                             : С потерями
Размер потока                            : 137 Мбайт (10%)
Выравнивание                             : Разделение по промежуткам
Продолжительность промежутка             : 42  мс. (1,00 видеокадр)
Время предзагрузки промежутка            : 500  мс.
Аудио #2
Идентификатор                            : 2
Формат                                   : AC-3
Формат/Информация                        : Audio Coding 3
Расширение режима                        : CM (complete main)
Параметр Endianness формата              : Big
Идентификатор кодека                     : 2000
Продолжительность                        : 1 ч. 39 м.
Вид битрейта                             : Постоянный
Битрейт                                  : 256 Кбит/сек
Каналы                                   : 2 канала
Расположение каналов                     : Front: L R
Частота                                  : 48,0 КГц
Битовая глубина                          : 16 бит
Метод сжатия                             : С потерями
Размер потока                            : 182 Мбайт (13%)
Выравнивание                             : Разделение по промежуткам
Продолжительность промежутка             : 42  мс. (1,00 видеокадр)
Время предзагрузки промежутка            : 500  мс.
Скриншоты:


-Время раздачи: 24/7 (до 10 скачавших)

[Цитировать]

Топик был перенесен из форума Новинки кинопроката в форум Боевик
Henkok



Показать сообщения:    

Текущее время: 08-Дек 10:58

Часовой пояс: UTC + 3


Вы не можете начинать темы
Вы не можете отвечать на сообщения
Вы не можете редактировать свои сообщения
Вы не можете удалять свои сообщения
Вы не можете голосовать в опросах
Вы не можете прикреплять файлы к сообщениям
Вы не можете скачивать файлы

!ВНИМАНИЕ!
Сайт не предоставляет электронные версии произведений, а занимается лишь коллекционированием и каталогизацией ссылок, присылаемых и публикуемых на форуме нашими читателями. Если вы являетесь правообладателем какого-либо представленного материала и не желаете, чтобы ссылка на него находилась в нашем каталоге, свяжитесь с нами, и мы незамедлительно удалим ее. Файлы для обмена на трекере предоставлены пользователями сайта, и администрация не несет ответственности за их содержание. Просьба не заливать файлы, защищенные авторскими правами, а также файлы нелегального содержания!