[ Сегодня идет свободное скачивание без начисления Download ]


Статистика раздачи
Нет
 
   
 
Top  
 
 
-Геракл: Начало легенды / The Legend of Hercules (2014) BDRip [1080p] [Звук с CamRip] 3D [Вертикальная анаморфная стереопара]- Год выпуска: 2014
Производство: США, Болгария
Жанр: Боевик, Фэнтези
Режиссер: Ренни Харлин
Продюсер: Боаз Дэвидсон, Ренни Харлин, Ави Лернер
Актеры: Келлан Латс, Джая Уайсс, Скотт Эдкинс, Роксанна МакКи, Лайам Гэрриган, Лиам МакИнтайр, Раде Шербеджия, Джонатон Шек, Люк Ньюберри, Кеннет Крэнэм
Описание фильма:
1200 г. до н. э. Древняя Греция. Прекрасная царица Алкмена попала под чары грозного бога Олимпа — Зевса и родила ему сына Геракла. При рождении ему было предсказано стать величайшим воином, который будет властвовать над народами и принесет мир и процветание своей стране. Но пока Геракл ничего не знает о своем предназначении. Он вырос прекрасным и сильным юношей. Он мечтает о любви принцессы Крита, Гебы, которая обещана в жены его брату. Когда Геракл узнает о своей великой миссии, он должен выбрать: сбежать со своей любовью или исполнить свое предназначение.
Перевод: Дублированный [Звук с CamRip]
Субтитры: Вшитые, отключаемые
Язык субтитров: Английский, Китайский

Дата мировой премьеры: 8 января 2014
Дата российской премьеры: 23 января 2014, «Наше Кино»
Продолжительность: 01:38:38
Качество видео: BDRip [1080p]
Видеокодек: MPEG-4 AVC/H.264
Битрейт видео: 10.9 Mbps
Размер кадра: 1920x1080
Аудио #1: Русский: MP3, 44.1 KHz, 2 ch, 128 Kbps, CBR
Аудио #2: Английский: AC-3, 48.0 KHz, 6 ch, 640 Kbps, CBR
Аудио #3: Английский: DTS, 48.0 KHz, 6 ch, 1510 Kbps, CBR
Сэмпл: Скачать

MediaInfo:

Общее
Уникальный идентификатор : 234888926833575717405049085542368368272 (0xB0B5F6372C58760CB2C27501CACD5690)
Полное имя : D:\Фильмы 3D\Gerakl.Nachalo.Legendy.BDRip.1080p.3D.mkv
Формат : Matroska
Версия формата : Version 4 / Version 2
Размер файла : 9,26 Гбайт
Продолжительность : 1 ч. 38 м.
Общий поток : 13,4 Мбит/сек
Дата кодирования : UTC 2014-04-04 07:21:19
Программа кодирования : mkvmerge v6.8.0 ('Theme for Great Cities') 64bit built on Mar 2 2014 21:34:26
Библиотека кодирования : libebml v1.3.0 + libmatroska v1.4.1
Видео
Идентификатор : 1
Формат : AVC
Формат/Информация : Advanced Video Codec
Профиль формата : High@L4.0
Параметр CABAC формата : Да
Параметр ReFrames формата : 4 кадра
Идентификатор кодека : V_MPEG4/ISO/AVC
Продолжительность : 1 ч. 38 м.
Битрейт : 10,9 Мбит/сек
Ширина : 1920 пикселей
Высота : 1080 пикселей
Соотношение сторон : 16:9
Режим частоты кадров : Постоянный
Частота кадров : 23,976 кадра/сек
Цветовое пространство : YUV
Субдискретизация насыщенности : 4:2:0
Битовая глубина : 8 бит
Тип развёртки : Прогрессивная
Бит/(Пиксели*Кадры) : 0.219
Размер потока : 7,50 Гбайт (81%)
Библиотека кодирования : x264 core 116 r2074 2641b9e
Настройки программы : cabac=1 / ref=4 / deblock=1:-3:-3 / analyse=0x3:0x113 / me=umh / subme=9 / psy=1 / psy_rd=1.00:0.00 / mixed_ref=1 / me_range=16 / chroma_me=1 / trellis=2 / 8x8dct=1 / cqm=0 / deadzone=21,11 / fast_pskip=1 / chroma_qp_offset=-2 / threads=9 / sliced_threads=0 / nr=0 / decimate=1 / interlaced=0 / bluray_compat=0 / constrained_intra=0 / bframes=6 / b_pyramid=2 / b_adapt=2 / b_bias=0 / direct=3 / weightb=1 / open_gop=0 / weightp=2 / keyint=250 / keyint_min=23 / scenecut=40 / intra_refresh=0 / rc_lookahead=60 / rc=crf / mbtree=1 / crf=18.0 / qcomp=0.60 / qpmin=1 / qpmax=69 / qpstep=4 / ip_ratio=1.40 / aq=1:1.00
Язык : English
Default : Нет
Forced : Нет
Аудио #1
Идентификатор : 2
Формат : MPEG Audio
Версия формата : Version 1
Профиль формата : Layer 3
Идентификатор кодека : A_MPEG/L3
Идентификатор кодека/Подсказка : MP3
Продолжительность : 1 ч. 38 м.
Вид битрейта : Постоянный
Битрейт : 128 Кбит/сек
Каналы : 2 канала
Частота : 44,1 КГц
Метод сжатия : С потерями
Размер потока : 90,3 Мбайт (1%)
Язык : Russian
Default : Да
Forced : Нет
Аудио #2
Идентификатор : 3
Формат : AC-3
Формат/Информация : Audio Coding 3
Расширение режима : CM (complete main)
Параметр Endianness формата : Big
Идентификатор кодека : A_AC3
Продолжительность : 1 ч. 38 м.
Вид битрейта : Постоянный
Битрейт : 640 Кбит/сек
Каналы : 6 каналов
Расположение каналов : Front: L C R, Side: L R, LFE
Частота : 48,0 КГц
Битовая глубина : 16 бит
Метод сжатия : С потерями
Размер потока : 452 Мбайт (5%)
Язык : English
Default : Нет
Forced : Нет
Аудио #3
Идентификатор : 4
Формат : DTS
Формат/Информация : Digital Theater Systems
Режим : 16
Параметр Endianness формата : Big
Идентификатор кодека : A_DTS
Продолжительность : 1 ч. 38 м.
Вид битрейта : Постоянный
Битрейт : 1509 Кбит/сек
Каналы : 6 каналов
Расположение каналов : Front: L C R, Side: L R, LFE
Частота : 48,0 КГц
Битовая глубина : 24 бит
Метод сжатия : С потерями
Размер потока : 1,04 Гбайт (11%)
Язык : English
Default : Нет
Forced : Нет
Текст #1
Идентификатор : 5
Формат : UTF-8
Идентификатор кодека : S_TEXT/UTF8
Идентификатор кодека/Информация : UTF-8 Plain Text
Язык : English
Default : Нет
Forced : Нет
Текст #2
Идентификатор : 6
Формат : PGS
Режим смешивания : zlib
Идентификатор кодека : S_HDMV/PGS
Идентификатор кодека/Информация : The same subtitle format used on BDs/HD-DVDs
Язык : Chinese
Default : Нет
Forced : Нет
Меню
00:00:00.000 : en:00:00:00.000
00:14:07.221 : en:00:14:07.221
00:36:13.546 : en:00:36:13.546
00:58:32.676 : en:00:58:32.676
01:18:37.630 : en:01:18:37.630
01:29:12.806 : en:01:29:12.806

Дополнительная информация:

Справа и слева у видеоряда обрезано по 248р, что дает возможность просмотра на полный экран (без черных полос) на телевизорах с соотношением сторон 16:9 без изменения пропорций.
Скриншоты:
Время раздачи: 24/7
(до 5 скачавших)

[Цитировать]



Показать сообщения:    

Текущее время: 08-Дек 10:50

Часовой пояс: UTC + 3


Вы не можете начинать темы
Вы не можете отвечать на сообщения
Вы не можете редактировать свои сообщения
Вы не можете удалять свои сообщения
Вы не можете голосовать в опросах
Вы не можете прикреплять файлы к сообщениям
Вы не можете скачивать файлы

!ВНИМАНИЕ!
Сайт не предоставляет электронные версии произведений, а занимается лишь коллекционированием и каталогизацией ссылок, присылаемых и публикуемых на форуме нашими читателями. Если вы являетесь правообладателем какого-либо представленного материала и не желаете, чтобы ссылка на него находилась в нашем каталоге, свяжитесь с нами, и мы незамедлительно удалим ее. Файлы для обмена на трекере предоставлены пользователями сайта, и администрация не несет ответственности за их содержание. Просьба не заливать файлы, защищенные авторскими правами, а также файлы нелегального содержания!