[ Сегодня идет свободное скачивание без начисления Download ]


Статистика раздачи
Нет
 
   
 
Top  
 
 
- Comedy Баттл. Суперсезон. Выпуск №1 / Комеди Клаб / Comedy Club (2014.04.04) WEBRip - Режиссер / Телекомпания: ТНТ
Русское название: Comedy Баттл
Год выпуска: 2014
Жанр: ТВ-Шоу
Описание:
«Comedy Баттл. Суперсезон» - это почти 200 участников, прошедших кастинги в Саратове, Воронеже, Ростове-на-Дону, Нижнем Новгороде, Екатеринбурге, Иркутске, Красноярске, Омске, Санкт-Петербурге, Москве, Киеве и Минске. Многие из участников уже хорошо знакомы телезрителям ТНТ по участию в прошлых сезонах.
Ведущий: Павел Воля
Жюри: Семен Слепаков, Сергей Светлаков и Гарик Мартиросян
Продолжительность: ~ 00:47:57
Видеокодек: XviD
Битрейт видео: ~1650 kb/s
Размер кадра: 720 x 400
Качество видео: WEBRip
Аудиокодек: MP3, 2ch.
Битрейт аудио: 128 kb/s

MediaInfo

Формат : AVI
Формат/Информация : Audio Video Interleave
Размер файла : 611 Мбайт
Продолжительность : 47 м.
Общий поток : 1782 Кбит/сек
Программа кодирования : Lavf55.21.100
Видео
Идентификатор : 0
Формат : MPEG-4 Visual
Профиль формата : Simple@L3
Параметр BVOP формата : Нет
Параметр QPel формата : Нет
Параметр GMC формата : Без точки перехода
Параметр матрицы формата : Default (H.263)
Идентификатор кодека : XVID
Идентификатор кодека/Подсказка : XviD
Продолжительность : 47 м.
Битрейт : 1642 Кбит/сек
Ширина : 720 пикселей
Высота : 400 пикселей
Соотношение сторон : 16:9
Частота кадров : 25,000 кадров/сек
Цветовое пространство : YUV
Субдискретизация насыщенности : 4:2:0
Битовая глубина : 8 бит
Тип развёртки : Прогрессивная
Метод сжатия : С потерями
Бит/(Пиксели*Кадры) : 0.228
Размер потока : 563 Мбайт (92%)
Библиотека кодирования : XviD 64
Аудио
Идентификатор : 1
Формат : MPEG Audio
Версия формата : Version 1
Профиль формата : Layer 3
Режим : Joint stereo
Расширение режима : MS Stereo
Идентификатор кодека : 55
Идентификатор кодека/Подсказка : MP3
Продолжительность : 47 м.
Вид битрейта : Постоянный
Битрейт : 128 Кбит/сек
Каналы : 2 канала
Частота : 44,1 КГц
Метод сжатия : С потерями
Размер потока : 43,9 Мбайт (7%)
Выравнивание : Соединение по промежуткам
Продолжительность промежутка : 26 мс. (0,65 видеокадр)
Время предзагрузки промежутка : 26 мс.
Библиотека кодирования : LAME3.99.5ЄЄЄЄЄЄЄЄЄЄ
Скриншоты:

[Цитировать]



Показать сообщения:    

Текущее время: 09-Дек 10:44

Часовой пояс: UTC + 3


Вы не можете начинать темы
Вы не можете отвечать на сообщения
Вы не можете редактировать свои сообщения
Вы не можете удалять свои сообщения
Вы не можете голосовать в опросах
Вы не можете прикреплять файлы к сообщениям
Вы не можете скачивать файлы

!ВНИМАНИЕ!
Сайт не предоставляет электронные версии произведений, а занимается лишь коллекционированием и каталогизацией ссылок, присылаемых и публикуемых на форуме нашими читателями. Если вы являетесь правообладателем какого-либо представленного материала и не желаете, чтобы ссылка на него находилась в нашем каталоге, свяжитесь с нами, и мы незамедлительно удалим ее. Файлы для обмена на трекере предоставлены пользователями сайта, и администрация не несет ответственности за их содержание. Просьба не заливать файлы, защищенные авторскими правами, а также файлы нелегального содержания!