[ Today is free to download without increasing Download ]

DL-List and Torrent activity
- Comedy Баттл. Суперсезон. Выпуск №1 / Комеди Клаб / Comedy Club (2014.04.04) WEBRip - Режиссер / Телекомпания: ТНТ
Русское название: Comedy Баттл
Год выпуска: 2014
Жанр: ТВ-Шоу
«Comedy Баттл. Суперсезон» - это почти 200 участников, прошедших кастинги в Саратове, Воронеже, Ростове-на-Дону, Нижнем Новгороде, Екатеринбурге, Иркутске, Красноярске, Омске, Санкт-Петербурге, Москве, Киеве и Минске. Многие из участников уже хорошо знакомы телезрителям ТНТ по участию в прошлых сезонах.
Ведущий: Павел Воля
Жюри: Семен Слепаков, Сергей Светлаков и Гарик Мартиросян
Продолжительность: ~ 00:47:57
Видеокодек: XviD
Битрейт видео: ~1650 kb/s
Размер кадра: 720 x 400
Качество видео: WEBRip
Аудиокодек: MP3, 2ch.
Битрейт аудио: 128 kb/s


Формат : AVI
Формат/Информация : Audio Video Interleave
Размер файла : 611 Мбайт
Продолжительность : 47 м.
Общий поток : 1782 Кбит/сек
Программа кодирования : Lavf55.21.100
Идентификатор : 0
Формат : MPEG-4 Visual
Профиль формата : Simple@L3
Параметр BVOP формата : Нет
Параметр QPel формата : Нет
Параметр GMC формата : Без точки перехода
Параметр матрицы формата : Default (H.263)
Идентификатор кодека : XVID
Идентификатор кодека/Подсказка : XviD
Продолжительность : 47 м.
Битрейт : 1642 Кбит/сек
Ширина : 720 пикселей
Высота : 400 пикселей
Соотношение сторон : 16:9
Частота кадров : 25,000 кадров/сек
Цветовое пространство : YUV
Субдискретизация насыщенности : 4:2:0
Битовая глубина : 8 бит
Тип развёртки : Прогрессивная
Метод сжатия : С потерями
Бит/(Пиксели*Кадры) : 0.228
Размер потока : 563 Мбайт (92%)
Библиотека кодирования : XviD 64
Идентификатор : 1
Формат : MPEG Audio
Версия формата : Version 1
Профиль формата : Layer 3
Режим : Joint stereo
Расширение режима : MS Stereo
Идентификатор кодека : 55
Идентификатор кодека/Подсказка : MP3
Продолжительность : 47 м.
Вид битрейта : Постоянный
Битрейт : 128 Кбит/сек
Каналы : 2 канала
Частота : 44,1 КГц
Метод сжатия : С потерями
Размер потока : 43,9 Мбайт (7%)
Выравнивание : Соединение по промежуткам
Продолжительность промежутка : 26 мс. (0,65 видеокадр)
Время предзагрузки промежутка : 26 мс.
Библиотека кодирования : LAME3.99.5ЄЄЄЄЄЄЄЄЄЄ


Display posts:    

Current time is: 22-Oct 11:53

All times are UTC + 3

You cannot post new topics in this forum
You cannot reply to topics in this forum
You cannot edit your posts in this forum
You cannot delete your posts in this forum
You cannot vote in polls in this forum
You cannot attach files in this forum
You cannot download files in this forum

The site does not give electronic versions of products, and is engaged only in a collecting and cataloguing of the references sent and published at a forum by our readers. If you are the legal owner of any submitted material and do not wish that the reference to it was in our catalogue, contact us and we shall immediately remove her. Files for an exchange on tracker are given by users of a site, and the administration does not bear the responsibility for their maintenance. The request to not fill in the files protected by copyrights, and also files of the illegal maintenance!