[ Сегодня идет свободное скачивание без начисления Download ]


Статистика раздачи
Нет
 
   
 
Top  
 
 
-20 футов под землёй: И пала тьма / 20 Ft Below: The Darkness Descending (2014)- Год выпуска: 2014
Производство: США | Odyssey Motion Pictures, Blue Dragon Entertainment
Жанр: Триллер
Режиссер: Марк Клебанофф
Продюсер: Марк Клебанофф, Даррен Дарнбаро, Кинга Филиппс
Актеры: Дэнни Трехо, Кинга Филиппс, Фрэнк Крюгер, Джон Хенниган, Тиффани Адамс, Кристофф Ст. Джон, Луис Мэндилор, Майкл Рене Уолтон, Даррен Дарнбаро, Чейз Остин
Описание фильма:
Под улицами Нью-Йорка, в тени заброшенных тоннелей метро, скрыт мрачный и опасный мир. Когда молодая девушка-режиссер отправляется в эти тоннели, она обнаруживает там нечто пострашнее тьмы.
Перевод: Двуголосый закадровый, любительский
Озвучка / Автор перевода: DeadSno & den904
Субтитры: Вшитые отключаемые
Язык субтитров: Английский (SDH)

Дата мировой премьеры: 18 марта 2014
Продолжительность: 01:36:14
Качество видео: WEB-DL 720р-LQ [PHD]
Видеокодек: MPEG-4 AVC/H.264
Битрейт видео: ~ 3978 Кбит/сек
Размер кадра: 1280 x 718 (1.783) at 23.976 fps
Аудио #1: AC3 192 Кбит/сек (2ch), 48,0 КГц, 16 бит [Русский, DVO]
Аудио #2: AC3 192 Кбит/сек (2ch), 48,0 КГц, 16 бит [Английский]
Дополнительно: Сохранены оригинальные чаптеры как на Blu-ray

MediaInfo:

Уникальный идентификатор                 : 203069955733574563740990934005236681645 (0x98C5D9D1A69E6C0AB6D0AA24BEECCBAD)
Полное имя                               : G:\20.Ft.Below.The.Darkness.Descending.2014.WEB.DL.720p.mkv
Формат                                   : Matroska
Версия формата                           : Version 2
Размер файла                             : 2,99 Гбайт
Продолжительность                        : 1 ч. 36 м.
Общий поток                              : 4450 Кбит/сек
Дата кодирования                         : UTC 2014-04-06 00:29:49
Программа кодирования                    : mkvmerge v2.9.9 ('Tutu') built on Nov 25 2009 21:13:32
Библиотека кодирования                   : libebml v0.7.9 + libmatroska v0.8.1
Видео
Идентификатор                            : 1
Формат                                   : AVC
Формат/Информация                        : Advanced Video Codec
Профиль формата                          : [url=mailto:[email protected]][email protected][/url]
Параметр CABAC формата                   : Нет
Параметр ReFrames формата                : 2 кадра
Параметр GOP формата                     : M=2, N=73
Идентификатор кодека                     : V_MPEG4/ISO/AVC
Продолжительность                        : 1 ч. 36 м.
Битрейт                                  : 3978 Кбит/сек
Ширина                                   : 1280 пикселей
Высота                                   : 718 пикселей
Соотношение сторон                       : 16:9
Режим частоты кадров                     : Постоянный
Частота кадров                           : 23,976 кадра/сек
Цветовое пространство                    : YUV
Субдискретизация насыщенности            : 4:2:0
Битовая глубина                          : 8 бит
Тип развёртки                            : Прогрессивная
Бит/(Пиксели*Кадры)                      : 0.181
Размер потока                            : 2,67 Гбайт (89%)
Заголовок                                : -=NNM-CLUB.RU=-
Язык                                     : English
Default                                  : Нет
Forced                                   : Нет
Основные цвета                           : BT.709
Характеристики трансфера                 : BT.709
Коэффициенты матрицы                     : BT.709
Аудио #1
Идентификатор                            : 2
Формат                                   : AC-3
Формат/Информация                        : Audio Coding 3
Расширение режима                        : CM (complete main)
Параметр Endianness формата              : Big
Идентификатор кодека                     : A_AC3
Продолжительность                        : 1 ч. 36 м.
Вид битрейта                             : Постоянный
Битрейт                                  : 192 Кбит/сек
Каналы                                   : 2 канала
Расположение каналов                     : Front: L R
Частота                                  : 48,0 КГц
Битовая глубина                          : 16 бит
Метод сжатия                             : С потерями
Размер потока                            : 132 Мбайт (4%)
Заголовок                                : AC3.192.Kbps (2ch) Russian (DVO Влад и Снежинка)
Язык                                     : Russian
Default                                  : Нет
Forced                                   : Да
Аудио #2
Идентификатор                            : 3
Формат                                   : AC-3
Формат/Информация                        : Audio Coding 3
Расширение режима                        : CM (complete main)
Параметр Endianness формата              : Big
Идентификатор кодека                     : A_AC3
Продолжительность                        : 1 ч. 36 м.
Вид битрейта                             : Постоянный
Битрейт                                  : 192 Кбит/сек
Каналы                                   : 2 канала
Расположение каналов                     : Front: L R
Частота                                  : 48,0 КГц
Битовая глубина                          : 16 бит
Метод сжатия                             : С потерями
Размер потока                            : 132 Мбайт (4%)
Заголовок                                : AC3.192.Kbps (2ch) English
Язык                                     : English
Default                                  : Нет
Forced                                   : Нет
Текст
Идентификатор                            : 4
Формат                                   : UTF-8
Идентификатор кодека                     : S_TEXT/UTF8
Идентификатор кодека/Информация          : UTF-8 Plain Text
Заголовок                                : English (SDH)
Язык                                     : English
Default                                  : Нет
Forced                                   : Нет
Меню
00:00:00.000                             : en:Chapter 1
00:06:34.000                             : en:Chapter 2
00:13:53.000                             : en:Chapter 3
00:23:14.000                             : en:Chapter 4
00:32:51.000                             : en:Chapter 5
00:42:29.000                             : en:Chapter 6
00:51:11.000                             : en:Chapter 7
00:59:47.000                             : en:Chapter 8
01:08:06.000                             : en:Chapter 9
01:17:59.000                             : en:Chapter 10
01:24:15.000                             : en:Chapter 11
01:32:02.000                             : en:Chapter 12
Скриншоты:


-Время раздачи: 24/7 (до 10 скачавших)

[Цитировать]

Топик был перенесен из форума Новинки кинопроката в форум Триллер
Henkok



Показать сообщения:    

Текущее время: 06-Дек 22:55

Часовой пояс: UTC + 3


Вы не можете начинать темы
Вы не можете отвечать на сообщения
Вы не можете редактировать свои сообщения
Вы не можете удалять свои сообщения
Вы не можете голосовать в опросах
Вы не можете прикреплять файлы к сообщениям
Вы не можете скачивать файлы

!ВНИМАНИЕ!
Сайт не предоставляет электронные версии произведений, а занимается лишь коллекционированием и каталогизацией ссылок, присылаемых и публикуемых на форуме нашими читателями. Если вы являетесь правообладателем какого-либо представленного материала и не желаете, чтобы ссылка на него находилась в нашем каталоге, свяжитесь с нами, и мы незамедлительно удалим ее. Файлы для обмена на трекере предоставлены пользователями сайта, и администрация не несет ответственности за их содержание. Просьба не заливать файлы, защищенные авторскими правами, а также файлы нелегального содержания!