[ Сегодня идет свободное скачивание без начисления Download ]


Статистика раздачи
Нет
 
   
 
Top  
 
 
-За сигаретами / Elle s'en va (2013) DVDRip- Год выпуска: 2013
Производство: Франция | Fid?lit? Films, Rh?ne-Alpes Cin?ma, Wild Bunch
Жанр: Комедия, Драма
Перевод: Многоголосый закадровый, профессиональный
Субтитры: Отсутствуют
Дата мировой премьеры: 15 февраля 2013 (Германия, Берлинский кинофестиваль)
Дата российской премьеры: 21 ноября 2013, «A-One Films»
Режиссер: Эмманюэль Берко-Продюсер: Оливье Делбоск, Марк Миссонье, Кристин де Жекель
Актеры: Катрин Денёв, Немо Шиффман, Жерар Гаруст, Камилль, Клоди Жансак, Поль Ами, Милен Демонжо, Хафсия Херци, Эвелин Леклерк, Валери Лагранж, Валентин Гийом ...
Описание фильма:
Что может огорчить женщину? Развалившийся роман? Проблемы с собственным рестораном на грани банкротства? От такого любой впадет в уныние. Но только не Бэтти. Первым делом нужно перекурить, решает она и отправляется за сигаретами в соседний бар. Так начинается ее головокружительная одиссея: за несколько дней она проедет в своем стареньком «мерседесе» половину Франции, чтобы понять, что эта дорога и есть её путь к счастью.-
Продолжительность: 01:48:29
Качество видео: DVDRip
Видеокодек: Xvid
Битрейт видео: ~ 1724 Кбит/сек
Размер кадра: 720 x 384 (1.875) at 25.000 fps
Аудиокодек: AC3 2.0
Битрейт аудио: 192 Кбит/сек, 48,0 КГц, 16 бит

Награды

MediaInfo:

Полное имя                               : G:\Za.sigaretami.2013.P.DVDRip.1.46Gb.NNM-CLUB.avi
Формат                                   : AVI
Формат/Информация                        : Audio Video Interleave
Размер файла                             : 1,46 Гбайт
Продолжительность                        : 1 ч. 48 м.
Общий поток                              : 1925 Кбит/сек
Программа кодирования                    : VirtualDubMod 1.5.10.2 (build 2540/release)
Библиотека кодирования                   : VirtualDubMod build 2540/release
Видео
Идентификатор                            : 0
Формат                                   : MPEG-4 Visual
Профиль формата                          : Advanced [email protected]
Параметр BVOP формата                    : 2
Параметр QPel формата                    : Нет
Параметр GMC формата                     : Без точки перехода
Параметр матрицы формата                 : Default (MPEG)
Идентификатор кодека                     : XVID
Идентификатор кодека/Подсказка           : XviD
Продолжительность                        : 1 ч. 48 м.
Битрейт                                  : 1724 Кбит/сек
Ширина                                   : 720 пикселей
Высота                                   : 384 пикселя
Соотношение сторон                       : 1,85:1
Частота кадров                           : 25,000 кадров/сек
Цветовое пространство                    : YUV
Субдискретизация насыщенности            : 4:2:0
Битовая глубина                          : 8 бит
Тип развёртки                            : Прогрессивная
Метод сжатия                             : С потерями
Бит/(Пиксели*Кадры)                      : 0.249
Размер потока                            : 1,31 Гбайт (90%)
Библиотека кодирования                   : XviD 1.2.1 (UTC 2008-12-04)
Аудио
Идентификатор                            : 1
Формат                                   : AC-3
Формат/Информация                        : Audio Coding 3
Расширение режима                        : CM (complete main)
Параметр Endianness формата              : Big
Идентификатор кодека                     : 2000
Продолжительность                        : 1 ч. 48 м.
Вид битрейта                             : Постоянный
Битрейт                                  : 192 Кбит/сек
Каналы                                   : 2 канала
Расположение каналов                     : Front: L R
Частота                                  : 48,0 КГц
Битовая глубина                          : 16 бит
Метод сжатия                             : С потерями
Размер потока                            : 149 Мбайт (10%)
Выравнивание                             : Разделение по промежуткам
Продолжительность промежутка             : 40  мс. (1,00 видеокадр)
Время предзагрузки промежутка            : 500  мс.
Скриншоты:



Время раздачи: 24/7 (до 10 скачавших)

[Цитировать]



Показать сообщения:    

Текущее время: 06-Дек 19:01

Часовой пояс: UTC + 3


Вы не можете начинать темы
Вы не можете отвечать на сообщения
Вы не можете редактировать свои сообщения
Вы не можете удалять свои сообщения
Вы не можете голосовать в опросах
Вы не можете прикреплять файлы к сообщениям
Вы не можете скачивать файлы

!ВНИМАНИЕ!
Сайт не предоставляет электронные версии произведений, а занимается лишь коллекционированием и каталогизацией ссылок, присылаемых и публикуемых на форуме нашими читателями. Если вы являетесь правообладателем какого-либо представленного материала и не желаете, чтобы ссылка на него находилась в нашем каталоге, свяжитесь с нами, и мы незамедлительно удалим ее. Файлы для обмена на трекере предоставлены пользователями сайта, и администрация не несет ответственности за их содержание. Просьба не заливать файлы, защищенные авторскими правами, а также файлы нелегального содержания!