[ Сегодня идет свободное скачивание без начисления Download ]


Статистика раздачи
Нет
 
   
 
Top  
 
 
-Геракл: Начало легенды / The Legend of Hercules (2014) BDRip
«Каждый человек имеет свою судьбу»
- Год выпуска: 2014
Производство: США, Болгария | Millennium Films
Жанр: Боевик, Фэнтези
Перевод: Дублированный [Чистый звук]
Субтитры: Вшитые отключаемые
Язык субтитров: Английский
Режиссер: Ренни Харлин
Продюсер: Боаз Дэвидсон, Ренни Харлин, Дэнни Лернер
Актеры: Келлан Латс, Джая Уайсс, Скотт Эдкинс, Роксанна МакКи, Лайам Гэрриган, Лиам МакИнтайр, Раде Шербеджия, Джонатон Шек, Люк Ньюберри, Кеннет Крэнэм
Роли дублировали: Олег Новиков, Владимир Антоник, Денис Некрасов, Евгения Ваган
Описание фильма:
1200 г. до н. э. Древняя Греция. Прекрасная царица Алкмена попала под чары грозного бога Олимпа — Зевса и родила ему сына Геракла. При рождении ему было предсказано стать величайшим воином, который будет властвовать над народами и принесет мир и процветание своей стране. Но пока Геракл ничего не знает о своем предназначении. Он вырос прекрасным и сильным юношей. Он мечтает о любви принцессы Крита, Гебы, которая обещана в жены его брату. Когда Геракл узнает о своей великой миссии, он должен выбрать: сбежать со своей любовью или исполнить свое предназначение.-
Дата мировой премьеры: 8 января 2014 (Филиппины)
Дата российской премьеры: 23 января 2014, «Наше Кино»
Продолжительность: 01:38:38
Качество видео: BDRip 1080p [CHD]
Видеокодек: MPEG-4 AVC/H.264
Битрейт видео: ~11,1 Мбит/сек
Размер кадра: 1920 x 804 (2.388) at 23.976 fps : 0.301 Bits/Pixel
Аудио #1: AC3 192 Кбит/сек (2ch), 48,0 КГц, 16 бит [Русский, Дубляж]
Аудио #2: DTS 1509 Кбит/сек (6ch), 48,0 КГц, 24 бит [Английский]
Аудио #3: AC3 224 Кбит/сек (2ch), 48,0 КГц, 16 бит [Английский-комментарии]
Дополнительно: Сохранены оригинальные чаптеры как на Blu-ray
Релиз:

Трейлер / Ролик

[youtube]http://www.youtube.com/v/H5wpTmLCCN8&fs=1[/youtube]

Знаете ли вы, что...

• Роксанна МакКи, играющая мать Келлана Латса, старше его всего на 5 лет.
• Келлан Латс рассказал, что, поскольку он снимался без рубашки на протяжении большей части фильма, это позволяло ему отжиматься и делать упражнения на пресс в перерывах между дублями. При этом он мог не бояться того, что вспотеет или же испачкает костюм. За один съемочный день Латс делал более 1000 отжиманий и столько же раз качал пресс. По его словам, благодаря этому его персонаж выглядит таким накачанным.
• Исполнивший роль Креонта Юкка Хилден является каскадером и участником финского экстремального шоу Dudesons, более известного в России под названием «Горячие финские парни». К сожалению, сюжетная линия актера не вошла в конечную версию фильма.
• Когда Келлан Латс получил роль, он хотел набрать большую мышечную массу, чтобы изобразить Геракла. Но режиссер Ренни Харлин сказал ему просто сделать пресс более рельефным.

MediaInfo:

Уникальный идентификатор                 : 192408895624222921391667227964714939473 (0x90C09AF931F84845A74625FBF2667451)
Полное имя                               : G:\Gerakl.Nachalo.legendy.2014.D.BDRip.1080p.NNM-CLUB.mkv
Формат                                   : Matroska
Версия формата                           : Version 2
Размер файла                             : 9,00 Гбайт
Продолжительность                        : 1 ч. 38 м.
Общий поток                              : 13,1 Мбит/сек
Название фильма                          : The.Legend.of.Hercules.2014.BluRay.1080p.DTS.x264-CHD
Дата кодирования                         : UTC 2014-04-06 16:16:54
Программа кодирования                    : mkvmerge v2.9.9 ('Tutu') built on Nov 25 2009 21:13:32
Библиотека кодирования                   : libebml v0.7.9 + libmatroska v0.8.1
Видео
Идентификатор                            : 1
Формат                                   : AVC
Формат/Информация                        : Advanced Video Codec
Профиль формата                          : [url=mailto:High@L4.1]High@L4.1[/url]
Параметр CABAC формата                   : Да
Параметр ReFrames формата                : 5 кадров
Идентификатор кодека                     : V_MPEG4/ISO/AVC
Продолжительность                        : 1 ч. 38 м.
Битрейт                                  : 11,1 Мбит/сек
Ширина                                   : 1920 пикселей
Высота                                   : 804 пикселя
Соотношение сторон                       : 2,40:1
Режим частоты кадров                     : Постоянный
Частота кадров                           : 23,976 кадра/сек
Цветовое пространство                    : YUV
Субдискретизация насыщенности            : 4:2:0
Битовая глубина                          : 8 бит
Тип развёртки                            : Прогрессивная
Бит/(Пиксели*Кадры)                      : 0.301
Размер потока                            : 7,49 Гбайт (83%)
Заголовок                                : -=Release for NNM-CLUB.RU=-
Библиотека кодирования                   : x264 core 138 r2356 a1d3d17
Настройки программы                      : cabac=1 / ref=5 / deblock=1:-3:-3 / analyse=0x3:0x113 / me=umh / subme=10 / psy=1 / psy_rd=1.00:0.05 / mixed_ref=1 / me_range=32 / chroma_me=1 / trellis=2 / 8x8dct=1 / cqm=0 / deadzone=21,11 / fast_pskip=0 / chroma_qp_offset=-2 / threads=18 / lookahead_threads=1 / sliced_threads=0 / nr=0 / decimate=1 / interlaced=0 / bluray_compat=0 / constrained_intra=0 / bframes=5 / b_pyramid=2 / b_adapt=2 / b_bias=0 / direct=3 / weightb=1 / open_gop=0 / weightp=2 / keyint=250 / keyint_min=23 / scenecut=40 / intra_refresh=0 / rc=2pass / mbtree=0 / bitrate=11130 / ratetol=1.0 / qcomp=0.70 / qpmin=0 / qpmax=69 / qpstep=4 / cplxblur=20.0 / qblur=0.5 / ip_ratio=1.40 / pb_ratio=1.30 / aq=2:0.90
Язык                                     : English
Default                                  : Нет
Forced                                   : Нет
Аудио #1
Идентификатор                            : 2
Формат                                   : AC-3
Формат/Информация                        : Audio Coding 3
Расширение режима                        : CM (complete main)
Параметр Endianness формата              : Big
Идентификатор кодека                     : A_AC3
Продолжительность                        : 1 ч. 38 м.
Вид битрейта                             : Постоянный
Битрейт                                  : 192 Кбит/сек
Каналы                                   : 2 канала
Расположение каналов                     : Front: L R
Частота                                  : 48,0 КГц
Битовая глубина                          : 16 бит
Метод сжатия                             : С потерями
Размер потока                            : 135 Мбайт (1%)
Заголовок                                : AC3.192.Kbps (2ch) Russian (Дубляж)
Язык                                     : Russian
Default                                  : Да
Forced                                   : Нет
Аудио #2
Идентификатор                            : 3
Формат                                   : DTS
Формат/Информация                        : Digital Theater Systems
Режим                                    : 16
Параметр Endianness формата              : Big
Идентификатор кодека                     : A_DTS
Продолжительность                        : 1 ч. 38 м.
Вид битрейта                             : Постоянный
Битрейт                                  : 1509 Кбит/сек
Каналы                                   : 6 каналов
Расположение каналов                     : Front: L C R, Side: L R, LFE
Частота                                  : 48,0 КГц
Битовая глубина                          : 24 бит
Метод сжатия                             : С потерями
Задержка видео                           : 11 мс.
Размер потока                            : 1,04 Гбайт (12%)
Заголовок                                : DTS.1509.Kbps (6ch) English
Язык                                     : English
Default                                  : Нет
Forced                                   : Нет
Аудио #3
Идентификатор                            : 4
Формат                                   : AC-3
Формат/Информация                        : Audio Coding 3
Расширение режима                        : CM (complete main)
Параметр Endianness формата              : Big
Идентификатор кодека                     : A_AC3
Продолжительность                        : 1 ч. 38 м.
Вид битрейта                             : Постоянный
Битрейт                                  : 224 Кбит/сек
Каналы                                   : 2 канала
Расположение каналов                     : Front: L R
Частота                                  : 48,0 КГц
Битовая глубина                          : 16 бит
Метод сжатия                             : С потерями
Размер потока                            : 158 Мбайт (2%)
Заголовок                                : AC3.224.Kbps (2ch) English (Commentary with Kellan Lutz and director Renny Harlin)
Язык                                     : English
Default                                  : Нет
Forced                                   : Нет
Текст
Идентификатор                            : 5
Формат                                   : UTF-8
Идентификатор кодека                     : S_TEXT/UTF8
Идентификатор кодека/Информация          : UTF-8 Plain Text
Заголовок                                : English (Full)
Язык                                     : English
Default                                  : Нет
Forced                                   : Нет
Меню
00:00:00.000                             : en:00:00:00.000
00:14:07.221                             : en:00:14:07.221
00:36:13.546                             : en:00:36:13.546
00:58:32.676                             : en:00:58:32.676
01:18:37.630                             : en:01:18:37.630
01:29:12.806                             : en:01:29:12.806

x264 iNFO

x264 [info]: profile High, level 4.1
x264 [info]: frame I:1925 Avg QP:14.40 size:210855
x264 [info]: frame P:43692 Avg QP:16.63 size: 89375
x264 [info]: frame B:96295 Avg QP:18.84 size: 40727
Скриншоты:




[Цитировать]



Показать сообщения:    

Текущее время: 10-Дек 10:02

Часовой пояс: UTC + 3


Вы не можете начинать темы
Вы не можете отвечать на сообщения
Вы не можете редактировать свои сообщения
Вы не можете удалять свои сообщения
Вы не можете голосовать в опросах
Вы не можете прикреплять файлы к сообщениям
Вы не можете скачивать файлы

!ВНИМАНИЕ!
Сайт не предоставляет электронные версии произведений, а занимается лишь коллекционированием и каталогизацией ссылок, присылаемых и публикуемых на форуме нашими читателями. Если вы являетесь правообладателем какого-либо представленного материала и не желаете, чтобы ссылка на него находилась в нашем каталоге, свяжитесь с нами, и мы незамедлительно удалим ее. Файлы для обмена на трекере предоставлены пользователями сайта, и администрация не несет ответственности за их содержание. Просьба не заливать файлы, защищенные авторскими правами, а также файлы нелегального содержания!