[ Сегодня идет свободное скачивание без начисления Download ]


Статистика раздачи
Нет
 
   
 
Top  
 
 
-Геракл: Начало легенды / The Legend of Hercules (2014) BDRemux
«Every man has a destiny»
- Год выпуска: 2014
Производство: США, Болгария / Millennium Films
Жанр: Боевик, фэнтези
Описание фильма:
1200 г. до н. э. Древняя Греция. Прекрасная царица Алкмена попала под чары грозного бога Олимпа — Зевса и родила ему сына Геракла. При рождении ему было предсказано стать величайшим воином, который будет властвовать над народами и принесет мир и процветание своей стране. Но пока Геракл ничего не знает о своем предназначении. Он вырос прекрасным и сильным юношей. Он мечтает о любви принцессы Крита, Гебы, которая обещана в жены его брату. Когда Геракл узнает о своей великой миссии, он должен выбрать: сбежать со своей любовью или исполнить свое предназначение.
Режиссер: Ренни Харлин / Renny Harlin
Продюсер: Боаз Дэвидсон, Ренни Харлин, Дэнни Лернер
Актеры: Келлан Латс, Скотт Эдкинс, Лиам МакИнтайр, Джая Уайсс, Лайам Гэрриган, Роксанна МакКи, Раде Шербеджия, Джонатон Шек, Люк Ньюберри, Кеннет Крэнэм
Язык: Русский, английский
Перевод: Дублированный [чистый звук]
Вид субтитров: Вшитые отключаемые
Язык субтитров: Английский

Дата мировой премьеры: 8 января 2014
Дата российской премьеры: 23 января 2014, «Наше Кино»
Рейтинг MPAA: PG-13
Возраст: 12+
Продолжительность: 01:38:38
Качество видео: BDRemux
Видео: MPEG4_AVC/H.264, 1920x1080, ~16000 kbps, 0.324 bit/pixel, 23.976 fps
Аудио 1: AC3 2.0, 192 kbps, 48 kHz [Русский - дублированный]
Аудио 2: DTS-HD MA 5.1, 2381 kbps, 48 kHz [Английский - оригинал]
Аудио 3: AC3 2.0, 224 kbps, 48 kHz [Английский - комментарий]

Отчёт MediaInfo

Полное имя : D:\Геракл.Начало.легенды-The.Legend.of.Hercules.(2014).BDRemux.[1080p].mkv
Формат : Matroska
Версия формата : Version 2
Размер файла : 12,9 Гбайт
Продолжительность : 1 ч. 38 м.
Режим общего битрейта : Переменный
Общий поток : 18,8 Мбит/сек
Название фильма : The Legend of Hercules (2014) / Lelya_K for NNM-Club
Дата кодирования : UTC 2014-04-06 17:28:30
Программа кодирования : mkvmerge v5.7.0 ('The Whirlwind') built on Aug 7 2012 14:11:40
Библиотека кодирования : libebml v1.2.3 + libmatroska v1.3.0
Attachment : Yes
Видео
Идентификатор : 1
Формат : AVC
Формат/Информация : Advanced Video Codec
Профиль формата : High@L4.1
Параметр CABAC формата : Да
Параметр ReFrames формата : 4 кадра
Параметр GOP формата : M=3, N=24
Идентификатор кодека : V_MPEG4/ISO/AVC
Продолжительность : 1 ч. 38 м.
Вид битрейта : Переменный
Битрейт : 16,1 Мбит/сек
Максимальный битрейт : 22,0 Мбит/сек
Ширина : 1920 пикселей
Высота : 1080 пикселей
Соотношение сторон : 16:9
Режим частоты кадров : Постоянный
Частота кадров : 23,976 кадра/сек
Стандарт вещания : NTSC
Цветовое пространство : YUV
Субдискретизация насыщенности : 4:2:0
Битовая глубина : 8 бит
Тип развёртки : Прогрессивная
Бит/(Пиксели*Кадры) : 0.324
Размер потока : 11,1 Гбайт (86%)
Заголовок : Геракл.Начало.легенды-The.Legend.of.Hercules.(2014).BDRemux.[1080p]
Язык : English
Default : Да
Forced : Нет
Основные цвета : BT.709
Характеристики трансфера : BT.709
Коэффициенты матрицы : BT.709
Аудио #1
Идентификатор : 2
Формат : AC-3
Формат/Информация : Audio Coding 3
Расширение режима : CM (complete main)
Параметр Endianness формата : Big
Идентификатор кодека : A_AC3
Продолжительность : 1 ч. 38 м.
Вид битрейта : Постоянный
Битрейт : 192 Кбит/сек
Каналы : 2 канала
Расположение каналов : Front: L R
Частота : 48,0 КГц
Битовая глубина : 16 бит
Метод сжатия : С потерями
Размер потока : 135 Мбайт (1%)
Заголовок : AC3 2.0 / 192 kbps / Dub
Язык : Russian
Default : Да
Forced : Нет
Аудио #2
Идентификатор : 3
Формат : DTS
Формат/Информация : Digital Theater Systems
Профиль формата : MA / Core
Идентификатор кодека : A_DTS
Продолжительность : 1 ч. 38 м.
Вид битрейта : Переменный
Битрейт : 1903 Кбит/сек / 1510 Кбит/сек
Каналы : 6 каналов
Расположение каналов : Front: L C R, Side: L R, LFE
Частота : 48,0 КГц
Битовая глубина : 16 бит
Метод сжатия : Без потерь / Lossy
Заголовок : DTS-HD MA 5.1 / 2381 kbps / Original
Язык : English
Default : Нет
Forced : Нет
Аудио #3
Идентификатор : 4
Формат : AC-3
Формат/Информация : Audio Coding 3
Расширение режима : CM (complete main)
Параметр Endianness формата : Big
Идентификатор кодека : A_AC3
Продолжительность : 1 ч. 38 м.
Вид битрейта : Постоянный
Битрейт : 224 Кбит/сек
Каналы : 2 канала
Расположение каналов : Front: L R
Частота : 48,0 КГц
Битовая глубина : 16 бит
Метод сжатия : С потерями
Размер потока : 158 Мбайт (1%)
Заголовок : AC3 2.0 / 224 kbps / Commentary with Kellan Lutz and director Renny Harlin
Язык : English
Default : Нет
Forced : Нет
Текст
Идентификатор : 5
Формат : UTF-8
Идентификатор кодека : S_TEXT/UTF8
Идентификатор кодека/Информация : UTF-8 Plain Text
Заголовок : Full
Язык : English
Default : Нет
Forced : Нет
Меню
00:00:00.000 : en:Chapter 1
00:14:07.221 : en:Chapter 2
00:36:13.545 : en:Chapter 3
00:58:32.675 : en:Chapter 4
01:18:37.628 : en:Chapter 5
01:29:12.805 : en:Chapter 6
Скриншоты:

[Цитировать]



Показать сообщения:    

Текущее время: 08-Дек 21:15

Часовой пояс: UTC + 3


Вы не можете начинать темы
Вы не можете отвечать на сообщения
Вы не можете редактировать свои сообщения
Вы не можете удалять свои сообщения
Вы не можете голосовать в опросах
Вы не можете прикреплять файлы к сообщениям
Вы не можете скачивать файлы

!ВНИМАНИЕ!
Сайт не предоставляет электронные версии произведений, а занимается лишь коллекционированием и каталогизацией ссылок, присылаемых и публикуемых на форуме нашими читателями. Если вы являетесь правообладателем какого-либо представленного материала и не желаете, чтобы ссылка на него находилась в нашем каталоге, свяжитесь с нами, и мы незамедлительно удалим ее. Файлы для обмена на трекере предоставлены пользователями сайта, и администрация не несет ответственности за их содержание. Просьба не заливать файлы, защищенные авторскими правами, а также файлы нелегального содержания!