[ Сегодня идет свободное скачивание без начисления Download ]


Статистика раздачи
Нет
 
   
 
Top  
 
 
-Легок на помине (2014) BDRip- Год выпуска: 2014
Производство: Россия | Enjoy Movies
Жанр: Комедия, Фантастика
Перевод: Не требуется (русский) [Лицензия]
Субтитры: Отсутствуют
Режиссер: Евгений Абызов
Продюсер: Георгий Малков, Сарик Андреасян, Гевонд Андреасян
Актеры: Гарик Харламов, Кристина Асмус, Екатерина Васильева, Александр Ревва, Татьяна Космачева, Владимир Яглыч, Сергей Сафронов, Юрий Кузнецов, Анна Антонова, Александр Самойленко ...
Описание фильма:
Молодому и успешному риелтору Павлу, провернувшему немало полулегальных сделок, необходимо получить доверенность на куплю-продажу старинного поместья. А для этого втереться в доверие к владелице недвижимости, одинокой старушке, доживающей свои дни в родовом гнезде. Разработав хитрый план, риелтор-аферист получает заветную бумагу и начинает готовить поместье к продаже, празднуя очередную победу. Но не тут-то было! В отлаженный ход событий вмешиваются высшие силы. С наступлением темноты с Павлом происходят необъяснимые события — он внезапно начинает перемещаться в пространстве…

Дата мировой премьеры: 20 февраля 2014
Дата российской премьеры: 27 февраля 2014, «Каропрокат»
Дата выхода DVD релиза: 8 апреля 2014, «Lizard Cinema Trade»
Дата выхода Blu-Ray релиза: 8 апреля 2014, «Lizard Cinema Trade»
Продолжительность: 01:22:16
Качество видео: BDRip 1080p [profile-LQ]
Видеокодек: MPEG-4 AVC/H.264
Битрейт видео: ~ 7572 Кбит/сек
Размер кадра: 1920 x 800 (2.400) at 24.000 fps : 0.205 Bits/Pixel
Аудио: DTS 768 Кбит/сек (6ch), 48,0 КГц, 16 бит [Русский, Оригинал]

Трейлер / Ролик

[youtube]http://www.youtube.com/v/V9T4ElPmmSs&fs=1[/youtube]

Ошибки в фильме

• На 57-й минуте главная героиня Лиза называет Пашу Игорем (это настоящее имя Гарика Харламова).

MediaInfo:

Уникальный идентификатор                 : 181479011642618145984188097036045915674 (0x8887961672BAEB4BB8F9465BB3D2161A)
Полное имя                               : F:\Legok.na.pomine.2014.O.BDRip.1080p.mkv
Формат                                   : Matroska
Версия формата                           : Version 2
Размер файла                             : 4,89 Гбайт
Продолжительность                        : 1 ч. 22 м.
Общий поток                              : 8509 Кбит/сек
Дата кодирования                         : UTC 2014-04-04 19:34:22
Программа кодирования                    : mkvmerge v6.8.0 ('Theme for Great Cities') 64bit built on Mar  2 2014 21:34:26
Библиотека кодирования                   : libebml v1.3.0 + libmatroska v1.4.1
Видео
Идентификатор                            : 1
Формат                                   : AVC
Формат/Информация                        : Advanced Video Codec
Профиль формата                          : [url=mailto:[email protected]][email protected][/url]
Параметр CABAC формата                   : Да
Параметр ReFrames формата                : 4 кадра
Идентификатор кодека                     : V_MPEG4/ISO/AVC
Продолжительность                        : 1 ч. 22 м.
Битрейт                                  : 7572 Кбит/сек
Ширина                                   : 1920 пикселей
Высота                                   : 800 пикселей
Соотношение сторон                       : 2,40:1
Режим частоты кадров                     : Постоянный
Частота кадров                           : 24,000 кадра/сек
Цветовое пространство                    : YUV
Субдискретизация насыщенности            : 4:2:0
Битовая глубина                          : 8 бит
Тип развёртки                            : Прогрессивная
Бит/(Пиксели*Кадры)                      : 0.205
Размер потока                            : 4,35 Гбайт (89%)
Библиотека кодирования                   : x264 core 142 r2409+42 04be48a tMod [[email protected] X86_64]
Настройки программы                      : cabac=1 / ref=2 / deblock=1:0:0 / analyse=0x3:0x133 / me=hex / subme=2 / psy=1 / fade_compensate=0.00 / psy_rd=1.00:0.00 / mixed_ref=1 / me_range=16 / chroma_me=1 / trellis=2 / 8x8dct=1 / cqm=0 / deadzone=21,11 / fast_pskip=0 / chroma_qp_offset=0 / threads=12 / lookahead_threads=6 / sliced_threads=0 / nr=0 / decimate=1 / interlaced=0 / bluray_compat=0 / constrained_intra=0 / fgo=0 / bframes=2 / b_pyramid=2 / b_adapt=2 / b_bias=0 / direct=1 / weightb=1 / open_gop=0 / weightp=2 / keyint=240 / keyint_min=24 / scenecut=40 / intra_refresh=0 / rc=crf / mbtree=0 / crf=18.8000 / qcomp=0.60 / qpmin=0:0:0 / qpmax=69:69:69 / qpstep=4 / ip_ratio=1.40 / pb_ratio=1.30 / aq=1:1.00 / aq-sensitivity=10.00 / aq-factor=1.00:1.00:1.00 / aq2=0 / aq3=0
Язык                                     : English
Default                                  : Да
Forced                                   : Нет
Аудио
Идентификатор                            : 2
Формат                                   : DTS
Формат/Информация                        : Digital Theater Systems
Режим                                    : 16
Параметр Endianness формата              : Big
Идентификатор кодека                     : A_DTS
Продолжительность                        : 1 ч. 22 м.
Вид битрейта                             : Постоянный
Битрейт                                  : 768 Кбит/сек
Каналы                                   : 6 каналов
Расположение каналов                     : Front: L C R, Side: L R, LFE
Частота                                  : 48,0 КГц
Битовая глубина                          : 16 бит
Метод сжатия                             : С потерями
Размер потока                            : 452 Мбайт (9%)
Язык                                     : Russian
Default                                  : Да
Forced                                   : Нет
Скриншоты:




[Цитировать]



Показать сообщения:    

Текущее время: 06-Дек 03:51

Часовой пояс: UTC + 3


Вы не можете начинать темы
Вы не можете отвечать на сообщения
Вы не можете редактировать свои сообщения
Вы не можете удалять свои сообщения
Вы не можете голосовать в опросах
Вы не можете прикреплять файлы к сообщениям
Вы не можете скачивать файлы

!ВНИМАНИЕ!
Сайт не предоставляет электронные версии произведений, а занимается лишь коллекционированием и каталогизацией ссылок, присылаемых и публикуемых на форуме нашими читателями. Если вы являетесь правообладателем какого-либо представленного материала и не желаете, чтобы ссылка на него находилась в нашем каталоге, свяжитесь с нами, и мы незамедлительно удалим ее. Файлы для обмена на трекере предоставлены пользователями сайта, и администрация не несет ответственности за их содержание. Просьба не заливать файлы, защищенные авторскими правами, а также файлы нелегального содержания!