[ Сегодня идет свободное скачивание без начисления Download ]


Статистика раздачи
Нет
 
   
 
Top  
 
 
-Универ. Новая общага (2014) WEB-DLRip [H.264/720p-LQ] (сезон 6, серии 1-14 из 23 (101-114)) (Обновляемая)- Год выпуска: 2014
Жанр: Комедия, Семейный
Производство: ТНТ, Комеди Клаб Продакшн
Режиссер: Сергей Басин
Актеры: Александр Стекольников, Арарат Кещян, Станислав Ярушин, Анна Кузина, Настасья Самбурская, Анна Хилькевич, Елена Валюшкина, Владимир Фекленко, Андрей Лебедев, Сергей Пиоро, Наталья Рудова, Сергей Гусенков, Павел Фартуков, Мария Беляева, Иван Шмаков, Павел Конек, Анна Карышева, Дария Тюрина, Артурс Пуполс, Константин Шелягин, Ирина Темичева, Наталья Оленина, Мария Бокова (II), Илана Исакжанова, Александра Булычёва, Эдуард Айткулов, Михаил Люлинецкий, Руслан Щедрин, Анна Зарянкина и др.
Описание фильма:
От большой любви не уйдешь. Даже если ты – студент-раздолбай, предпочитающий отдых учебе и сдающий сессии, не приходя в сознание. В новом сериале герои не только веселятся, но и влюбляются.
Ребята стали старше и… романтичнее. Теперь им хочется не только секса и тусовок, но и настоящих чувств. Однако вызвать взаимность у дам сердца не так просто, как кажется.
Оставленным на второй год пятикурсникам привалило счастье. Их старая общага идет под снос, и в новом корпусе их селят в блок с тремя девушками – Кристиной, Машей и Яной. В блок к героям подселяют новенького. Валентин Будейко - ботаник, маменькин сынок и девственник.

Продолжительность: ~00:25:00 серия
Качество видео: WEB-DLRip
Видеокодек: MPEG-4 AVC/H.264
Битрейт видео: ~3000 Кбит/с
Размер кадра: 1280x720
Аудиокодек: AC3 2.0
Битрейт аудио: 192 Кбит/с

MediaInfo

Общее
Уникальный идентификатор : 220155467722673779517080397359201275447 (0xA5A06698E9BB9C1182B19E81B2E64E37)
Полное имя : E:\Раздачи\Univer.06.Novaya.obschaga.2014.WEB-DL.(720p)\Univer.06.Novaya.obschaga.(01.seriya).2014.WEB-DL.(720p).mkv
Формат : Matroska
Версия формата : Version 4 / Version 2
Размер файла : 545 Мбайт
Продолжительность : 24 м.
Общий поток : 3161 Кбит/сек
Название фильма : Univer.06.Novaya.obschaga.(01.seriya).2014.WEB-DL.(720p).MediaClub
Дата кодирования : UTC 2014-03-17 09:05:57
Программа кодирования : mkvmerge v6.3.0 ('You can't stop me!') built on Jun 28 2013 20:09:41
Библиотека кодирования : libebml v1.3.0 + libmatroska v1.4.0
Видео
Идентификатор : 1
Формат : AVC
Формат/Информация : Advanced Video Codec
Профиль формата : [email protected]
Параметр CABAC формата : Да
Параметр ReFrames формата : 8 кадров
Идентификатор кодека : V_MPEG4/ISO/AVC
Продолжительность : 24 м.
Битрейт : 2906 Кбит/сек
Ширина : 1280 пикселей
Высота : 720 пикселей
Соотношение сторон : 16:9
Режим частоты кадров : Постоянный
Частота кадров : 25,000 кадров/сек
Цветовое пространство : YUV
Субдискретизация насыщенности : 4:2:0
Битовая глубина : 8 бит
Тип развёртки : Прогрессивная
Бит/(Пиксели*Кадры) : 0.126
Размер потока : 501 Мбайт (92%)
Библиотека кодирования : x264 core 125
Настройки программы : cabac=1 / ref=8 / deblock=1:-1:-1 / analyse=0x3:0x133 / me=umh / subme=9 / psy=1 / psy_rd=1.00:0.15 / mixed_ref=1 / me_range=16 / chroma_me=1 / trellis=2 / 8x8dct=1 / cqm=0 / deadzone=21,11 / fast_pskip=1 / chroma_qp_offset=-3 / threads=18 / lookahead_threads=3 / sliced_threads=0 / nr=0 / decimate=1 / interlaced=0 / bluray_compat=0 / constrained_intra=0 / bframes=3 / b_pyramid=2 / b_adapt=2 / b_bias=0 / direct=3 / weightb=1 / open_gop=0 / weightp=2 / keyint=100 / keyint_min=10 / scenecut=40 / intra_refresh=0 / rc_lookahead=60 / rc=crf / mbtree=1 / crf=17.0 / qcomp=0.60 / qpmin=0 / qpmax=69 / qpstep=4 / vbv_maxrate=3600 / vbv_bufsize=3600 / crf_max=0.0 / nal_hrd=none / ip_ratio=1.40 / aq=1:1.00
Default : Да
Forced : Да
Аудио
Идентификатор : 2
Формат : AC-3
Формат/Информация : Audio Coding 3
Расширение режима : CM (complete main)
Параметр Endianness формата : Big
Идентификатор кодека : A_AC3
Продолжительность : 24 м.
Вид битрейта : Постоянный
Битрейт : 192 Кбит/сек
Каналы : 2 канала
Расположение каналов : Front: L R
Частота : 44,1 КГц
Битовая глубина : 16 бит
Метод сжатия : С потерями
Задержка видео : -80 мс.
Размер потока : 33,1 Мбайт (6%)
Язык : Russian
Default : Да
Forced : Да

[Цитировать]



Показать сообщения:    

Текущее время: 04-Дек 02:55

Часовой пояс: UTC + 3


Вы не можете начинать темы
Вы не можете отвечать на сообщения
Вы не можете редактировать свои сообщения
Вы не можете удалять свои сообщения
Вы не можете голосовать в опросах
Вы не можете прикреплять файлы к сообщениям
Вы не можете скачивать файлы

!ВНИМАНИЕ!
Сайт не предоставляет электронные версии произведений, а занимается лишь коллекционированием и каталогизацией ссылок, присылаемых и публикуемых на форуме нашими читателями. Если вы являетесь правообладателем какого-либо представленного материала и не желаете, чтобы ссылка на него находилась в нашем каталоге, свяжитесь с нами, и мы незамедлительно удалим ее. Файлы для обмена на трекере предоставлены пользователями сайта, и администрация не несет ответственности за их содержание. Просьба не заливать файлы, защищенные авторскими правами, а также файлы нелегального содержания!