[ Сегодня идет свободное скачивание без начисления Download ]


Статистика раздачи
Нет
 
   
 
Top  
 
 
-Паранормальное явление: Метка Дьявола / Paranormal Activity: The Marked Ones - Год выпуска: 2014
Производство: США, Paramount Pictures, Blumhouse Productions, Room 101
Жанр: Ужасы, Триллер
Перевод: Дублированный [iTunes Russia]
Субтитры: Отсутствуют
Режиссер: Кристофер Б. Лэндон
Продюсер: Джейсон Блум, Орен Пели, Стивен Шнайдер
Актеры: Эндрю Джейкобс, Хорхе Диаз, Габриэль Уолш, Рени Виктор, Ноеми Гонзалез, Дэвид Сауседо, Глория Сандовал, Ричард Кебрал, Карлос Праттс, Хуан Васкес
Описание фильма:
Потусторонняя сила, терроризировавшая героев предыдущих серий, вновь вырвалась на свободу в поисках новых жертв…

Дата мировой премьеры: 1 января 2014
Дата российской премьеры: 9 января 2014, «Централ Партнершип»
Дата выхода DVD релиза: 5 мая 2014, «Новый Диск»
Продолжительность: 01:24:12
Качество видео: HDRip
Видеокодек: XviD
Битрейт видео: ~1926 kb/s
Размер кадра: 720x400
Аудиокодек: AC3, 5.1
Битрейт аудио: 384 kb/s
Сэмпл: Скачать

MediaInfo

Общее
Полное имя : D:\Фильмы\Paranormalnoe.Yavlenie.Metka.Dyavola.2013.D.HDRip.1400MB.avi
Формат : AVI
Формат/Информация : Audio Video Interleave
Размер файла : 1,36 Гбайт
Продолжительность : 1 ч. 24 м.
Общий поток : 2319 Кбит/сек
Программа кодирования : VirtualDubMod 1.5.10.3 | www.virtualdub-fr.org || (build 2550/release)
Библиотека кодирования : VirtualDubMod build 2550/release
Видео
Идентификатор : 0
Формат : MPEG-4 Visual
Профиль формата : Advanced Simple@L5
Параметр BVOP формата : 2
Параметр QPel формата : Нет
Параметр GMC формата : Без точки перехода
Параметр матрицы формата : Выборочная
Идентификатор кодека : XVID
Идентификатор кодека/Подсказка : XviD
Продолжительность : 1 ч. 24 м.
Битрейт : 1926 Кбит/сек
Ширина : 720 пикселей
Высота : 400 пикселей
Соотношение сторон : 16:9
Частота кадров : 23,976 кадра/сек
Цветовое пространство : YUV
Субдискретизация насыщенности : 4:2:0
Битовая глубина : 8 бит
Тип развёртки : Прогрессивная
Метод сжатия : С потерями
Бит/(Пиксели*Кадры) : 0.279
Размер потока : 1,13 Гбайт (83%)
Библиотека кодирования : XviD 1.2.1 (UTC 2008-12-04)
Аудио
Идентификатор : 1
Формат : AC-3
Формат/Информация : Audio Coding 3
Расширение режима : CM (complete main)
Параметр Endianness формата : Big
Идентификатор кодека : 2000
Продолжительность : 1 ч. 24 м.
Вид битрейта : Постоянный
Битрейт : 384 Кбит/сек
Каналы : 6 каналов
Расположение каналов : Front: L C R, Side: L R, LFE
Частота : 48,0 КГц
Битовая глубина : 16 бит
Метод сжатия : С потерями
Размер потока : 231 Мбайт (17%)
Выравнивание : Разделение по промежуткам
Продолжительность промежутка : 42 мс. (1,00 видеокадр)
Время предзагрузки промежутка : 500 мс.
Скриншоты:

[Цитировать]

Топик был перенесен из форума Новинки кинопроката в форум Ужасы
Henkok



Показать сообщения:    

Текущее время: 09-Дек 04:54

Часовой пояс: UTC + 3


Вы не можете начинать темы
Вы не можете отвечать на сообщения
Вы не можете редактировать свои сообщения
Вы не можете удалять свои сообщения
Вы не можете голосовать в опросах
Вы не можете прикреплять файлы к сообщениям
Вы не можете скачивать файлы

!ВНИМАНИЕ!
Сайт не предоставляет электронные версии произведений, а занимается лишь коллекционированием и каталогизацией ссылок, присылаемых и публикуемых на форуме нашими читателями. Если вы являетесь правообладателем какого-либо представленного материала и не желаете, чтобы ссылка на него находилась в нашем каталоге, свяжитесь с нами, и мы незамедлительно удалим ее. Файлы для обмена на трекере предоставлены пользователями сайта, и администрация не несет ответственности за их содержание. Просьба не заливать файлы, защищенные авторскими правами, а также файлы нелегального содержания!