[ Сегодня идет свободное скачивание без начисления Download ]


Статистика раздачи
Нет
 
   
 
Top  
 
 
Последний час Земли / Earth's Final Hours- Страна: Канада
Студия: Third Planet Productions
Жанр: фантастика
Год выпуска: 2011
Продолжительность: 01:27:00-Перевод: Профессиональный (многоголосый закадровый) [Лицензия]
Cубтитры: нет
Оригинальная аудиодорожка: английский-Режиссер: Дэвид Хоган / David Hogan
В ролях: Хамза Адам, Джулия Андерсон, Камерон Брайт, Сэйдж Броклбэнк, Дуглас Чэпман, Роурк Критчлоу, Брюс Дэвисон, ДТефлон, Хиро Канагава, Роберт Неппер-Описание: На Землю падает небольшой плотный шар, который насквозь пробивает планету, в результате чего начинают меняться магнитные полюса. Правительственная экспертная группа, во главе с Хлоей Эдвардс, пытается остановить катастрофу и восстановить магнитные поля, чтобы Земля вновь смогла вращаться вокруг своей оси…- -Исходник: DVD9
Качество видео: DVDRip
Формат видео: AVI-Видео: 720x416 (1.73:1), 25 fps, XviD build 50 ~1858 kbps avg, 0.25 bit/pixel
Аудио 1: Russian (48 kHz, AC3 Dolby Digital, 2/0 (L,R) ch, ~192 kbps)
Аудио 2: English (48 kHz, AC3 Dolby Digital, 2/0 (L,R) ch, ~192 kbps)

MediaInfo

Общее
Полное имя : F:Poslednij.chas.Zemli.2011.P.avi
Формат : AVI
Формат/Информация : Audio Video Interleave
Размер файла : 1,37 Гбайт
Продолжительность : 1 ч. 27 м.
Общий поток : 2251 Кбит/сек
Название фильма : Poslednij.chas.Zemli.2011.P
Режиссёр : Modepido
Программа кодирования : VirtualDubMod 1.5.4.1 (build 2178/release)
Видео
Идентификатор : 0
Формат : MPEG-4 Visual
Профиль формата : Advanced [email protected]
Параметр BVOP формата : 1
Параметр QPel формата : Нет
Параметр GMC формата : Без точки перехода
Параметр матрицы формата : Выборочная
Идентификатор кодека : XVID
Идентификатор кодека/Подсказка : XviD
Продолжительность : 1 ч. 27 м.
Битрейт : 1858 Кбит/сек
Ширина : 720 пикс.
Высота : 416 пикс.
Соотношение сторон : 16:9
Частота кадров : 25,000 кадр/сек
Цветовое пространство : YUV
Подвыборка цветности : 4:2:0
Битовая глубина : 8 бит
Тип развёртки : Прогрессивная
Метод сжатия : С потерями
Бит/(Пиксели*Кадры) : 0.248
Размер потока : 1,13 Гбайт (83%)
Библиотека кодирования : XviD 1.2.1 (UTC 2008-12-04)
Аудио #1
Идентификатор : 1
Формат : AC-3
Формат/Информация : Audio Coding 3
Расширение режима : CM (complete main)
Идентификатор кодека : 2000
Продолжительность : 1 ч. 26 м.
Вид битрейта : Постоянный
Битрейт : 192 Кбит/сек
Каналы : 2 канала
Расположение каналов : Front: L R
Частота : 48,0 КГц
Битовая глубина : 16 бит
Метод сжатия : С потерями
Размер потока : 119 Мбайт (9%)
Выравнивание : Разделение по промежуткам
Продолжительность промежутка : 96 мс. (2,40 видеокадра)
Время предзагрузки промежутка : 96 ms
Аудио #2
Идентификатор : 2
Формат : AC-3
Формат/Информация : Audio Coding 3
Расширение режима : CM (complete main)
Идентификатор кодека : 2000
Продолжительность : 1 ч. 26 м.
Вид битрейта : Постоянный
Битрейт : 192 Кбит/сек
Каналы : 2 канала
Расположение каналов : Front: L R
Частота : 48,0 КГц
Битовая глубина : 16 бит
Метод сжатия : С потерями
Размер потока : 119 Мбайт (9%)
Выравнивание : Разделение по промежуткам
Продолжительность промежутка : 96 мс. (2,40 видеокадра)
Время предзагрузки промежутка : 96 ms

Скриншот c названием фильма

Скриншоты

[Цитировать]



Показать сообщения:    

Текущее время: 04-Дек 04:58

Часовой пояс: UTC + 3


Вы не можете начинать темы
Вы не можете отвечать на сообщения
Вы не можете редактировать свои сообщения
Вы не можете удалять свои сообщения
Вы не можете голосовать в опросах
Вы не можете прикреплять файлы к сообщениям
Вы не можете скачивать файлы

!ВНИМАНИЕ!
Сайт не предоставляет электронные версии произведений, а занимается лишь коллекционированием и каталогизацией ссылок, присылаемых и публикуемых на форуме нашими читателями. Если вы являетесь правообладателем какого-либо представленного материала и не желаете, чтобы ссылка на него находилась в нашем каталоге, свяжитесь с нами, и мы незамедлительно удалим ее. Файлы для обмена на трекере предоставлены пользователями сайта, и администрация не несет ответственности за их содержание. Просьба не заливать файлы, защищенные авторскими правами, а также файлы нелегального содержания!