[ Today is free to download without increasing Download ]

DL-List and Torrent activity
-Вий (2013) BDRip 3D- Год выпуска: 2013
Производство: Россия, Украина, Германия, Великобритания, Чехия
Жанр: Фэнтези, триллер, приключения
Субтитры: Отсутствуют
Режиссер: Олег Степченко
Актеры: Джейсон Флеминг, Андрей Смоляков, Алексей Чадов, Агния Дитковските, Юрий Цурило, Ольга Зайцева, Александр Яковлев, Игорь Жижикин, Валерий Золотухин, Нина Русланова
Описание фильма:
Начало XVIII века. Картограф Джонатан Грин совершает научное путешествие из Европы на Восток. Проследовав через Трансильванию и преодолев Карпатские горы, он попадает в затерянную среди непроходимых лесов деревушку. Только воля случая и густой туман могли занести его в это проклятое место. Народ, живущий здесь, не похож ни на один доселе виданный путешественником. Эти люди, оградив себя от остального мира глубоким рвом, наивно верят, что смогут уберечься от нечисти, не понимая, что она уже давно поселилась в их душах и только ждёт случая, чтобы вырваться наружу. Даже в страшном сне учёный-материалист не предполагал, что здесь ему уготована встреча с верным слугой дьявола.

Дата мировой премьеры: 30 января 2014
Дата российской премьеры: 30 января 2014, «UPI»
Дата выхода DVD релиза: 3 марта 2014, «Новый Диск»
Дата выхода BLU-RAY релиза: 10 марта 2014, «Новый Диск»
Продолжительность: 02:10:12
Качество видео: BDRip 3D
Видеокодек: MPEG-4 AVC/H.264
Битрейт видео: ~10.7 Mbps
Размер кадра: 1920x1080
Аудиокодек: AC3 5.1
Битрейт аудио: 448 kbps


Unique ID : 248593965752616514505749300242401093736 (0xBB0574CDB28BB641879DF8AA13F26868)
Complete name : Вий 3D.mkv
Format : Matroska
Format version : Version 4 / Version 2
File size : 10.3 GiB
Duration : 2h 10mn
Overall bit rate mode : Variable
Overall bit rate : 11.3 Mbps
Movie name : Вий 3D (rip by smithland)
Encoded date : UTC 2010-02-22 21:41:31
Writing application : mkvmerge v5.9.0 ('On The Loose')
Writing library : libebml v1.3.0 + libmatroska v1.4.0
Attachment : Yes
ID : 1
Format : AVC
Format/Info : Advanced Video Codec
Format profile : High@L4.1
MultiView_Count : 2
MultiView_Layout : Side by Side (left eye first)
Format settings, CABAC : Yes
Format settings, ReFrames : 2 frames
Duration : 2h 10mn
Bit rate mode : Variable
Bit rate : 10.7 Mbps
Maximum bit rate : 16.3 Mbps
Width : 1 920 pixels
Height : 1 080 pixels
Display aspect ratio : 16:9
Frame rate mode : Constant
Frame rate : 23.976 fps
Color space : YUV
Chroma subsampling : 4:2:0
Bit depth : 8 bits
Scan type : Progressive
Bits/(Pixel*Frame) : 0.214
Stream size : 9.69 GiB (94%)
Language : Russian
Default : Yes
Forced : Yes
ID : 2
Format : AC-3
Format/Info : Audio Coding 3
Mode extension : CM (complete main)
Format settings, Endianness : Big
Codec ID : A_AC3
Duration : 2h 10mn
Bit rate mode : Constant
Bit rate : 448 Kbps
Channel count : 6 channels
Channel positions : Front: L C R, Side: L R, LFE
Sampling rate : 48.0 KHz
Bit depth : 16 bits
Compression mode : Lossy
Stream size : 417 MiB (4%)
Language : Russian
Default : Yes
Forced : Yes
00:00:00.000 : en:(01)00:00:00:000
00:16:15.474 : en:(02)00:16:15:474
00:32:07.634 : en:(03)00:32:07:634
00:44:54.650 : en:(04)00:44:54:650
01:07:12.194 : en:(05)01:07:12:194
01:20:37.791 : en:(06)01:20:37:791
01:37:30.803 : en:(07)01:37:30:803
01:52:43.131 : en:(08)01:52:43:131
02:10:12.304 : en:(09)02:10:12:304


Display posts:    

Current time is: 22-Oct 19:13

All times are UTC + 3

You cannot post new topics in this forum
You cannot reply to topics in this forum
You cannot edit your posts in this forum
You cannot delete your posts in this forum
You cannot vote in polls in this forum
You cannot attach files in this forum
You cannot download files in this forum

The site does not give electronic versions of products, and is engaged only in a collecting and cataloguing of the references sent and published at a forum by our readers. If you are the legal owner of any submitted material and do not wish that the reference to it was in our catalogue, contact us and we shall immediately remove her. Files for an exchange on tracker are given by users of a site, and the administration does not bear the responsibility for their maintenance. The request to not fill in the files protected by copyrights, and also files of the illegal maintenance!